<?xml version="1.0" standalone="no"?>
<!DOCTYPE svg PUBLIC "-//W3C//DTD SVG 1.1//EN" "http://www.w3.org/Graphics/SVG/1.1/DTD/svg11.dtd" >
<svg xmlns="http://www.w3.org/2000/svg" xmlns:xlink="http://www.w3.org/1999/xlink" version="1.1">
<metadata></metadata>
<defs>
<font id="libre_franklinregular" horiz-adv-x="599" >
<font-face units-per-em="1000" ascent="800" descent="-200" />
<missing-glyph horiz-adv-x="215" />
<glyph unicode="&#xfb01;" horiz-adv-x="618" d="M355 520v-43q0 -9 -10 -9h-114q-8 0 -8 -9v-445q0 -14 -12 -14h-61q-11 0 -11 13v447q0 8 -7 8h-98q-10 0 -10 9v43q0 10 11 10h95q9 0 9 10v73q0 129 125 129h83q13 0 13 -12v-39q0 -10 -11 -10h-70q-58 0 -58 -72v-70q0 -9 9 -9h115q10 0 10 -10zM544 644 q0 -10 -4 -14.5t-14 -4.5h-58q-15 0 -15 17v84q0 16 14 16h63q6 0 10 -4t4 -11v-83zM540 17q0 -10 -4 -13.5t-14 -3.5h-51q-9 0 -12 3t-3 11v502q0 14 12 14h61q11 0 11 -13v-500z" />
<glyph unicode="&#xfb02;" horiz-adv-x="618" d="M355 520v-43q0 -9 -10 -9h-114q-8 0 -8 -9v-445q0 -14 -12 -14h-61q-11 0 -11 13v447q0 8 -7 8h-98q-10 0 -10 9v43q0 10 11 10h95q9 0 9 10v73q0 129 125 129h83q13 0 13 -12v-39q0 -10 -11 -10h-70q-58 0 -58 -72v-70q0 -9 9 -9h115q10 0 10 -10zM541 17 q0 -10 -4 -13.5t-14 -3.5h-52q-9 0 -12 3t-3 11l1 714q0 14 12 14h60q12 0 12 -13v-712z" />
<glyph horiz-adv-x="0" />
<glyph horiz-adv-x="0" />
<glyph unicode="&#xd;" horiz-adv-x="214" />
<glyph unicode=" "  horiz-adv-x="215" />
<glyph unicode="&#x09;" horiz-adv-x="215" />
<glyph unicode="&#xa0;" horiz-adv-x="215" />
<glyph unicode="!" horiz-adv-x="244" d="M151 194q0 -14 -16 -14h-29q-13 0 -13 12l-21 539v2q0 9 9 9h82q5 0 7.5 -3t1.5 -7zM173 16q0 -9 -4 -12.5t-15 -3.5h-69q-8 0 -11.5 3t-3.5 11v85q0 12 10 12h83q10 0 10 -11v-84z" />
<glyph unicode="&#x22;" horiz-adv-x="409" d="M317 526q-2 -8 -5 -11t-12 -3h-24q-7 0 -9.5 2.5t-3.5 9.5l-25 208v2q0 8 9 8h86q10 0 9 -10zM148 526q-2 -8 -5 -11t-12 -3h-24q-7 0 -9.5 2.5t-3.5 9.5l-25 208v2q0 8 9 8h86q10 0 9 -10z" />
<glyph unicode="#" horiz-adv-x="603" d="M569 496v-30q0 -14 -16 -14h-102l-24 -156h99q10 0 10 -10v-30q0 -14 -16 -14h-101l-35 -228q-2 -9 -5 -12t-10 -2l-28 4q-7 2 -10 4t-2 7l35 227h-154l-35 -228q-2 -9 -5 -12t-10 -2l-28 4q-7 2 -10 4t-2 7l35 227h-108q-13 0 -13 12v31q0 11 9 11h120l24 156h-107 q-13 0 -13 12v31q0 11 9 11h119l34 225q4 12 10 11l34 -5q6 -1 8.5 -3.5t1.5 -9.5l-33 -218h154l34 225q1 5 3.5 8.5t6.5 2.5l34 -5q6 -1 8.5 -3.5t1.5 -9.5l-33 -218h100q10 0 10 -10zM396 452h-154l-24 -156h154z" />
<glyph unicode="$" horiz-adv-x="605" d="M540.5 88q-26.5 -43 -74 -68.5t-109.5 -27.5q-7 0 -9.5 -2t-2.5 -8v-56q0 -14 -14 -14h-35q-13 0 -13 11v60q0 6 -1.5 7.5t-6.5 1.5q-81 1 -136 28.5t-98 82.5q-7 9 -7 14t5 8l33 31q7 5 11 5q5 0 10 -5q36 -46 78 -69t103 -25h3q7 0 7 8v245q0 9 -5 14t-15 10 q-77 28 -121.5 57t-64 65t-19.5 86q0 81 58 135t155 65q4 1 7.5 4t3.5 7v49q0 4 2.5 7t6.5 3h40q7 0 9.5 -3t2.5 -11v-48q0 -8 10 -8q56 -7 100.5 -29t83.5 -59q5 -3 5 -9q0 -5 -4 -9l-35 -36q-5 -5 -8 -5t-11 8q-20 25 -55 43t-76 25h-2q-8 0 -8 -8v-251q0 -6 2.5 -9 t9.5 -5l38 -13q173 -67 173 -206q0 -53 -26.5 -96zM283 669q0 5 -3 7.5t-8 1.5q-61 -7 -97 -41t-36 -84q0 -39 27.5 -68t96.5 -58q3 -1 8 -1q12 0 12 15v228zM354 62q60 1 96.5 34t36.5 82q0 46 -29.5 76.5t-97.5 56.5q-3 1 -7 1q-8 0 -8 -10v-234q0 -7 9 -6z" />
<glyph unicode="%" horiz-adv-x="916" d="M318 727q39 -26 61 -74t22 -112q0 -65 -22 -113t-61 -73.5t-89 -25.5q-51 0 -90.5 25.5t-61.5 73.5t-22 113q0 64 22.5 112t62 74t89.5 26t89 -26zM246 5q-4 -5 -8 -7t-11 -2h-26q-11 0 -11 9q0 6 3 10l484 728q3 5 7.5 6t8.5 1h33q13 0 6 -11zM306.5 422.5 q28.5 44.5 28.5 117.5q0 75 -28.5 120t-78.5 45t-78.5 -45.5t-28.5 -119.5q0 -73 28.5 -117.5t78.5 -44.5t78.5 44.5zM778 388q39 -26 61 -74t22 -112q0 -65 -22 -113t-61 -73.5t-89 -25.5q-51 0 -90.5 25.5t-61.5 73.5t-22 113q0 64 22.5 112t62 74t89.5 26t89 -26zM766 84 q29 45 29 117q0 73 -29.5 119t-77.5 46t-77.5 -46.5t-29.5 -118.5q0 -71 29 -116.5t78 -45.5t78 45z" />
<glyph unicode="&#x26;" horiz-adv-x="778" d="M473 712q53 -41 53 -109q0 -57 -43.5 -109t-132.5 -91q-8 -4 -8 -8t5 -9l156 -182q5 -6 7 -6t5 3l5 5q35 33 75 91t52 93q4 11 17 7l40 -14q5 -2 7.5 -7t1.5 -10q-15 -42 -55.5 -101.5t-88.5 -111.5q-5 -5 -5 -8q0 -2 3 -5l4 -4q28 -25 75.5 -43t91.5 -19q15 0 15 -13 v-43q0 -10 -4 -14t-14 -4q-57 0 -122.5 24t-108.5 57q-6 4 -9 4q-2 0 -9 -5q-99 -85 -224 -85q-103 0 -162.5 52.5t-59.5 141.5q0 60 36 110t117 98q10 6 10 11t-8 14q-67 72 -67 147q0 52 27.5 94t75.5 66t107 24q82 0 135 -41zM250 658q-34 -35 -34 -85q0 -48 41 -93 l27 -30q3 -4 9 -4q3 0 9 2q76 36 110 72.5t34 80.5q0 45 -29.5 68.5t-76.5 23.5q-56 0 -90 -35zM254 352q-6 0 -13 -4q-51 -26 -80.5 -66.5t-29.5 -88.5q0 -57 41.5 -94t104.5 -37q41 0 83 17.5t73 45.5q8 8 8 13q0 4 -5 11l-167 194q-7 9 -15 9z" />
<glyph unicode="'" horiz-adv-x="240" d="M148 526q-2 -8 -5 -11t-12 -3h-24q-7 0 -9.5 2.5t-3.5 9.5l-25 208v2q0 8 9 8h86q10 0 9 -10z" />
<glyph unicode="(" horiz-adv-x="286" d="M266.5 739q1.5 -3 -0.5 -6q-53 -105 -84.5 -220.5t-31.5 -228.5q0 -110 27 -216.5t81 -222.5q1 -1 1 -4q0 -6 -8 -6h-37q-8 0 -12 7q-67 115 -100.5 218.5t-33.5 224.5q0 120 38 235.5t103 213.5q6 8 16 8h34q6 0 7.5 -3z" />
<glyph unicode=")" horiz-adv-x="286" d="M61 742q10 0 16 -8q65 -98 103 -213.5t38 -235.5q0 -121 -33.5 -224.5t-100.5 -218.5q-4 -7 -12 -7h-37q-11 0 -7 10q54 116 81 222.5t27 216.5q0 113 -31.5 228.5t-84.5 220.5q-1 1 -1 3q0 6 8 6h34z" />
<glyph unicode="*" horiz-adv-x="380" d="M197 530q-1 2 -2.5 2t-2.5 -2l-75 -119q-1 -3 -5 -3t-8 2l-35 24q-4 3 -4 5.5t3 7.5l85 106q2 7 -4 8l-116 33q-7 3 -4 12l13 37q3 8 11 4l110 -44q8 -3 8 5l-9 126q0 3 2.5 5.5t6.5 2.5h47q8 0 8 -8l-8 -126q0 -8 6 -5l113 48q2 1 5 1q5 0 6 -6l11 -35q1 -2 1 -6t-6 -6 l-114 -38q-5 -1 -2 -8l82 -100q2 -2 2 -7q0 -4 -6 -9l-32 -22q-4 -3 -8.5 -3t-6.5 3z" />
<glyph unicode="+" horiz-adv-x="557" d="M496 396v-43q0 -13 -16 -13h-167v-174q0 -10 -10 -10h-43q-14 0 -14 16v167h-171q-13 0 -13 12v43q0 12 9 12h175v171q0 7 2.5 10t8.5 3h43q12 0 12 -9v-175h174q10 0 10 -10z" />
<glyph unicode="," horiz-adv-x="212" d="M45 -139q-2 4 0 11l45 112q3 6 3 9q0 7 -11 7h-13q-13 0 -13 12v89q0 11 10 11h83q10 0 10 -10v-82q0 -7 -3 -12l-73 -140q-6 -11 -20 -11h-11q-5 0 -7 4z" />
<glyph unicode="-" horiz-adv-x="381" d="M319 245q0 -14 -17 -14h-227q-7 0 -10 2.5t-3 9.5v44q0 11 9 11l238 1q10 0 10 -10v-44z" />
<glyph unicode="." horiz-adv-x="209" d="M155 16q0 -9 -4 -12.5t-14 -3.5h-70q-8 0 -11.5 3t-3.5 11v86q0 13 11 13h82q10 0 10 -12v-85z" />
<glyph unicode="/" horiz-adv-x="342" d="M13 -35l250 768q3 9 13 9h44q10 0 10 -7q0 -3 -2 -9l-246 -757q-4 -13 -18 -13h-43q-12 0 -8 9z" />
<glyph unicode="0" horiz-adv-x="688" d="M487.5 707.5q62.5 -44.5 98.5 -131t36 -207.5q0 -120 -36 -205.5t-98.5 -129t-143.5 -43.5t-144 43.5t-98.5 128.5t-35.5 205q0 121 36 208t99.5 131.5t143.5 44.5t142.5 -44.5zM524 369q0 159 -47.5 234.5t-132.5 75.5t-132.5 -76t-47.5 -234q0 -156 48 -230.5 t133 -74.5q179 0 179 305z" />
<glyph unicode="1" horiz-adv-x="465" d="M423 66v-56q0 -4 -3 -7t-8 -3h-351q-11 0 -11 10v56q0 10 11 10h126q8 0 8 5v550q0 11 -9 8l-124 -46q-1 0 -2 -0.5t-2 0.5q-9 0 -9 12v40q0 7 2 9.5t8 5.5l148 74q17 8 30 8h43q11 0 11 -12v-647q0 -7 6 -7h115q11 0 11 -10z" />
<glyph unicode="2" d="M289 311q86 81 119 131.5t33 104.5q0 61 -44 95.5t-104 34.5q-47 0 -93 -24t-78 -75q-3 -5 -10 -5q-4 0 -10 3l-44 26q-8 5 -8 12q0 5 4 10q44 64 108.5 96t138.5 32q64 0 117 -23.5t84.5 -70.5t31.5 -114q0 -65 -35.5 -121t-125.5 -141l-201 -189q-5 -3 -5 -7 q0 -5 11 -5h351q7 0 10 -2.5t3 -8.5v-58q0 -12 -13 -12h-464q-9 0 -12.5 3.5t-3.5 12.5v41q0 11 5 19t22 23z" />
<glyph unicode="3" horiz-adv-x="641" d="M74 645q0 4 3 8q92 99 231 99q75 0 132 -24.5t87.5 -67t30.5 -96.5t-33.5 -97.5t-93.5 -64.5q-11 -3 -11 -7q0 -2 11 -7q65 -18 107.5 -66.5t42.5 -116.5q0 -63 -32.5 -111.5t-96.5 -76t-157 -27.5q-153 0 -250 106q-3 5 -3 8q0 5 6 9l43 34q7 5 9 5q4 0 7 -5 q44 -46 89.5 -65t105.5 -19q86 0 135 38t49 101q0 46 -26.5 80t-69.5 51t-92 17l-89 1q-12 0 -12 10v52q0 8 12 10l72 1q51 0 93 18t66 49t24 69q0 33 -20 60.5t-55.5 43.5t-79.5 16q-99 0 -179 -77q-5 -5 -9 -5q-2 0 -9 5l-35 35q-3 3 -3 7z" />
<glyph unicode="4" horiz-adv-x="649" d="M397 740q5 2 14 2h67q12 0 12 -12v-450q0 -9 8 -9h94q14 0 14 -10v-49q0 -13 -14 -13h-93q-9 0 -9 -10v-174q0 -15 -16 -15h-68q-13 0 -13 13v179q0 7 -9 7h-324q-15 0 -15 13v51q0 6 4.5 14.5t11.5 18.5l325 436q6 6 11 8zM382 271q4 0 6.5 2t2.5 5v334q0 12 -4 12 q-2 0 -10 -8l-244 -332q-3 -4 -3 -7q0 -6 10 -6h242z" />
<glyph unicode="5" horiz-adv-x="654" d="M544 742q10 0 13 -3t2 -11l-4 -55q-1 -7 -3 -9t-11 -2h-340q-12 0 -12 -11l-18 -217v-2q0 -7 3.5 -9.5t8.5 -0.5q48 25 83 36.5t83 11.5q69 0 125.5 -25t90 -76t33.5 -126q0 -78 -36.5 -135.5t-101 -87.5t-147.5 -30q-77 0 -144.5 27t-113.5 77q-5 7 -5 10q0 6 7 10 l43 35q3 3 6 3q5 0 11 -6q47 -44 86 -64t98 -20q94 0 148.5 49t54.5 129q0 76 -48 116.5t-122 40.5q-47 0 -86 -15.5t-86 -43.5q-7 -4 -9 -4q-1 0 -9 5l-49 28q-4 2 -6.5 4t-2.5 5l2 13l27 339q1 9 4 11.5t18 2.5h407z" />
<glyph unicode="6" horiz-adv-x="661" d="M487 723.5q49 -27.5 77 -69.5q3 -6 3 -8q0 -5 -6 -8l-57 -23q-2 -1 -5 -1q-6 0 -10 7q-24 29 -51.5 43.5t-67.5 14.5q-104 0 -156.5 -73.5t-52.5 -193.5q0 -13 1.5 -18t6.5 -5q4 0 10 3q51 25 91.5 38t93.5 13q75 0 130 -28t84 -77.5t29 -111.5q0 -69 -34 -122.5t-93 -83 t-131 -29.5q-87 0 -151 43.5t-98 127t-34 198.5q0 121 36.5 209t105 135t161.5 47q69 0 118 -27.5zM263 359.5q-49 -13.5 -80 -32.5q-12 -8 -16 -16.5t-4 -26.5q0 -51 21 -102.5t63 -86t102 -34.5q46 0 83 21.5t58.5 58.5t21.5 81q0 65 -43.5 108t-115.5 43q-41 0 -90 -13.5 z" />
<glyph unicode="7" d="M540 742q8 0 12 -3.5t3 -8.5l-1 -36q0 -15 -14 -36q-63 -94 -121.5 -217.5t-98.5 -238t-50 -183.5q-1 -19 -15 -19h-79q-8 0 -11 4.5t-1 12.5q32 130 103 295.5t180 335.5q3 5 3 9q0 5 -10 5h-387q-12 0 -11 12l6 58q1 6 4 8t11 2h477z" />
<glyph unicode="8" horiz-adv-x="668" d="M460.5 726.5q55.5 -25.5 86.5 -72t31 -106.5q0 -47 -24 -84t-77 -74q-8 -6 -8 -9q0 -4 7 -7q135 -53 135 -177q0 -63 -35 -109.5t-98.5 -72t-147.5 -25.5q-125 0 -197 51t-72 143q0 53 26.5 95.5t87.5 80.5q13 8 13 12t-12 10q-95 53 -95 155q0 60 32 109t89.5 77.5 t130.5 28.5q72 0 127.5 -25.5zM251.5 664q-37.5 -18 -58.5 -49t-21 -70q0 -91 103 -114l103 -24q19 -5 46.5 15.5t48 56t20.5 70.5q0 59 -43 96t-116 37q-45 0 -82.5 -18zM467 96q49 36 49 97q0 47 -25 75.5t-81 42.5l-130 31q-3 1 -9 1q-22 0 -52 -20t-51.5 -54t-21.5 -74 q0 -64 48.5 -99.5t140.5 -35.5q83 0 132 36z" />
<glyph unicode="9" horiz-adv-x="658" d="M170.5 18.5q-50.5 27.5 -79.5 69.5q-3 6 -3 8q0 5 6 8l57 23l4 1q6 0 11 -7q24 -28 53.5 -43t72.5 -15q101 0 152.5 73.5t51.5 193.5q0 13 -1.5 18t-5.5 5t-10 -3q-50 -25 -90 -38t-93 -13q-74 0 -128.5 28t-83.5 77.5t-29 112.5q0 68 34 121.5t93 83t131 29.5 q86 0 148.5 -44t96.5 -127t34 -198q0 -121 -36 -209t-104 -135t-160 -47q-71 0 -121.5 27.5zM397.5 383.5q48.5 14.5 78.5 36.5q12 8 16 16.5t4 26.5q0 50 -20.5 100.5t-62 84t-100.5 33.5q-46 0 -83 -21t-58.5 -58t-21.5 -82q0 -42 19.5 -76.5t55 -54.5t82.5 -20 q42 0 90.5 14.5z" />
<glyph unicode=":" horiz-adv-x="209" d="M155 411q0 -16 -18 -16h-70q-15 0 -15 15v84q0 13 11 13h82q10 0 10 -11v-85zM155 19q0 -16 -18 -16h-70q-15 0 -15 14v85q0 12 11 12h82q10 0 10 -11v-84z" />
<glyph unicode=";" horiz-adv-x="229" d="M55.5 397q-3.5 3 -3.5 11v85q0 13 11 13h82q10 0 10 -11v-86q0 -8 -4 -11.5t-14 -3.5h-70q-8 0 -11.5 3zM45 -140q-2 4 0 10l45 114l2 9q0 7 -10 7h-13q-13 0 -13 12v89q0 11 10 11h83q10 0 10 -10v-82q0 -7 -3 -12l-73 -141q-6 -11 -20 -11h-11q-5 0 -7 4z" />
<glyph unicode="&#x3c;" horiz-adv-x="544" d="M477 173q0 -17 -13 -17q-3 0 -9 2l-388 152q-14 7 -14 17v56q0 12 14 17l389 154q4 2 10 2q12 0 12 -15v-45q0 -8 -5 -12.5t-17 -10.5l-301 -118l301 -118q12 -5 16.5 -9.5t4.5 -13.5v-41z" />
<glyph unicode="=" horiz-adv-x="557" d="M496 452q0 -13 -16 -13l-405 -1q-13 0 -13 12v43q0 11 9 11l415 1q10 0 10 -10v-43zM496 227q0 -14 -16 -14l-405 -1q-13 0 -13 12v43q0 12 9 12h415q10 0 10 -9v-43z" />
<glyph unicode="&#x3e;" horiz-adv-x="544" d="M71.5 227.5q4.5 4.5 16.5 9.5l301 118l-301 118q-12 6 -17 10.5t-5 12.5v45q0 15 12 15q6 0 10 -2l389 -154q14 -5 14 -17v-56q0 -10 -14 -17l-388 -152q-6 -2 -9 -2q-13 0 -13 17v41q0 9 4.5 13.5z" />
<glyph unicode="?" horiz-adv-x="523" d="M28 610q-1 4 1 8q32 63 94.5 98.5t141.5 35.5q67 0 118 -22.5t78.5 -63.5t27.5 -93q0 -40 -14 -72.5t-34.5 -57.5t-54.5 -60q-34 -34 -54.5 -59t-34.5 -57.5t-14 -71.5q0 -5 -3.5 -8.5t-8.5 -3.5h-48q-13 0 -13 14q0 47 15 85.5t36 66.5t56 66q44 48 64.5 80.5t20.5 74.5 q0 53 -38 84.5t-100 31.5q-50 0 -97 -27t-64 -67q-2 -5 -4.5 -6t-7.5 1l-57 18q-5 1 -6 5zM298 16q0 -9 -4 -12.5t-15 -3.5h-70q-14 0 -14 14v85q0 12 10 12h83q10 0 10 -11v-84z" />
<glyph unicode="@" horiz-adv-x="834" d="M555 -95q-56 -18 -120 -18q-118 0 -206 50t-134.5 135t-46.5 189q0 108 50.5 199.5t142 146t208.5 54.5q91 0 172 -35t131.5 -107.5t50.5 -179.5q0 -75 -25 -133.5t-69.5 -91.5t-99.5 -33q-39 0 -60.5 13t-29.5 40q-3 7 -5 7q-1 0 -6 -6q-52 -68 -140 -68q-38 0 -70 21.5 t-51 61.5t-19 91q0 63 24.5 117t68.5 85.5t100 31.5q77 0 116 -64q1 -2 3.5 -1t3.5 5l7 28q1 6 8 6h45q8 0 7 -7l-37 -222q-3 -18 -3 -32q0 -25 10.5 -36t32.5 -11q33 0 61 23.5t44.5 67t16.5 101.5q0 92 -41 152.5t-106.5 88.5t-139.5 28q-104 0 -180 -46t-115.5 -124 t-39.5 -172q0 -90 38.5 -161.5t114 -113t181.5 -41.5q58 0 93.5 13.5t81.5 43.5q5 4 11 4t9 -5l20 -26q2 -2 2 -7q0 -4 -4 -8l-5 -5q-45 -31 -101 -49zM321.5 161q21.5 -32 60.5 -32q36 0 67 24t49.5 63.5t18.5 83.5q0 53 -27 83t-65 30q-36 0 -64.5 -22t-44.5 -60t-16 -83 q0 -55 21.5 -87z" />
<glyph unicode="A" horiz-adv-x="727" d="M46 4.5q-3 4.5 0 12.5l259 711q3 8 7 11t13 3h78q19 0 23 -15l256 -710l1 -5q0 -12 -11 -12h-71q-12 0 -16 10l-69 194q-2 4 -4 6t-8 2h-291q-9 0 -12 -8l-71 -195q-3 -9 -15 -9h-60q-6 0 -9 4.5zM478 288q11 0 8 13l-120 329q-3 9 -7 9t-7 -9l-122 -331l-2 -6q0 -5 8 -5 h242z" />
<glyph unicode="B" horiz-adv-x="699" d="M100.5 3.5q-3.5 3.5 -3.5 8.5v716q0 14 13 14h231q133 0 205.5 -49.5t72.5 -142.5q0 -61 -32 -102t-99 -65q-4 -1 -4 -4t4 -4q149 -38 149 -177q0 -99 -74 -148.5t-215 -49.5h-239q-5 0 -8.5 3.5zM354 411q70 0 119 30t49 98q0 66 -48 99.5t-133 33.5h-135q-13 0 -13 -12 v-236q0 -13 9 -13h152zM343 70q98 0 146 32t48 99q0 70 -50 104t-133 34h-147q-8 0 -11 -2.5t-3 -9.5v-243q0 -8 2 -11t7 -3h141z" />
<glyph unicode="C" horiz-adv-x="707" d="M503.5 724q59.5 -28 98.5 -75t47 -102l1 -7q0 -4 -2.5 -6t-5.5 -2l-75 -6h-2q-3 0 -5 2.5t-3 7.5q-15 65 -62 104t-114 39q-105 0 -160.5 -77.5t-55.5 -231.5q0 -151 55.5 -227.5t165.5 -76.5q71 0 118.5 34.5t76.5 108.5q2 7 12 4l59 -14q7 -2 5 -14q-15 -50 -52 -94.5 t-94 -72.5t-129 -28q-99 0 -170 46t-109 132t-38 204t37.5 203.5t108 131t167.5 45.5q66 0 125.5 -28z" />
<glyph unicode="D" horiz-adv-x="722" d="M268 741q202 -3 295.5 -94t93.5 -272q0 -375 -399 -375h-147q-14 0 -14 16v713q0 7 3 10t11 3q99 0 157 -1zM193 655v-572q0 -6 2.5 -8.5t9.5 -2.5h38q112 0 180.5 29.5t101 95.5t32.5 176t-31 173.5t-94.5 91t-168.5 30.5q-20 1 -62 1q-8 0 -8 -14z" />
<glyph unicode="E" horiz-adv-x="628" d="M99.5 739q2.5 3 9.5 3h449q10 0 10 -11v-51q0 -12 -13 -12h-349q-8 0 -10.5 -2.5t-2.5 -9.5v-234q0 -11 11 -11h259q11 0 11 -11v-53q0 -9 -11 -9h-259q-11 0 -11 -11v-243q0 -6 2 -8t8 -2h367q6 0 8.5 -2t2.5 -8v-53q0 -11 -11 -11h-459q-8 0 -11 3t-3 11v714 q0 8 2.5 11z" />
<glyph unicode="F" horiz-adv-x="601" d="M109 742h440q10 0 10 -11v-51q0 -12 -13 -12h-340q-8 0 -10.5 -2.5t-2.5 -9.5v-246q0 -11 11 -11h267q11 0 11 -10v-53q0 -5 -2.5 -7t-8.5 -2h-267q-11 0 -11 -11v-303q0 -13 -14 -13h-68q-8 0 -11 3t-3 11v714q0 14 12 14z" />
<glyph unicode="G" horiz-adv-x="739" d="M210 35.5q-70 45.5 -107.5 130.5t-37.5 202q0 119 38.5 206t109.5 132.5t166 45.5q68 0 127.5 -28t98 -74t46.5 -98v-6q0 -4 -1.5 -6t-6.5 -4l-72 -11h-2q-6 0 -9 10q-11 61 -61 102.5t-121 41.5q-103 0 -158 -78t-55 -227q0 -156 55 -233.5t160 -77.5q61 0 105 27 t66.5 69t25.5 85v60v2q0 9 -10 9h-163q-11 0 -11 10v43q0 9 10 9l248 -1q15 0 15 -12v-351q0 -13 -12 -13h-23q-8 0 -12 2t-6 10l-11 93q-1 4 -3.5 4t-5.5 -5q-32 -51 -85.5 -82.5t-132.5 -31.5q-95 0 -165 45.5z" />
<glyph unicode="H" horiz-adv-x="735" d="M201 347q-4 0 -6 -2.5t-2 -5.5v-324q0 -8 -4 -11.5t-13 -3.5h-65q-8 0 -11 3t-3 11v714q0 14 12 14h72q12 0 12 -13v-294q0 -7 2.5 -9.5t8.5 -2.5h328q10 0 10 12v295q0 12 11 12h73q7 0 9.5 -3t2.5 -11v-714q0 -14 -14 -14h-65q-9 0 -13 3.5t-4 11.5v323q0 9 -9 9h-332z " />
<glyph unicode="I" horiz-adv-x="290" d="M181 742q12 0 12 -13v-712q0 -10 -4 -13.5t-14 -3.5h-63q-9 0 -12 3t-3 11v714q0 14 12 14h72z" />
<glyph unicode="J" horiz-adv-x="418" d="M286.5 33q-38.5 -43 -121.5 -43q-45 0 -76.5 10t-35.5 11q-14 5 -11 19l9 54q2 12 12 9q5 -2 18 -7.5t29 -9t35 -3.5q46 0 65 24.5t19 87.5v544q0 13 12 13h73q11 0 11 -13v-566q0 -87 -38.5 -130z" />
<glyph unicode="K" horiz-adv-x="701" d="M659 7q0 -7 -8 -7h-82q-13 0 -18 9l-221 369q-2 5 -6 5q-3 0 -9 -6l-115 -131q-7 -7 -7 -18v-213q0 -8 -4 -11.5t-13 -3.5h-64q-15 0 -15 13v717q0 12 11 12h74q11 0 11 -12v-367q0 -7 3 -7q1 0 6 5l328 372q4 5 8 7t12 2h69q8 0 10.5 -4.5t-2.5 -9.5l-233 -260 q-2 -4 -2 -6.5t2 -6.5l263 -441q2 -6 2 -7z" />
<glyph unicode="L" horiz-adv-x="602" d="M109 742h72q12 0 12 -13v-645q0 -6 2 -8t8 -2h346q6 0 9 -2t3 -8v-53q0 -11 -12 -11h-438q-8 0 -11 3t-3 11v714q0 14 12 14z" />
<glyph unicode="M" horiz-adv-x="906" d="M97 15v713q0 8 2.5 11t9.5 3h96q8 0 11.5 -2.5t5.5 -8.5l222 -573q3 -9 7 -9q5 0 9 10l222 570q3 13 15 13h101q11 0 11 -13v-714q0 -15 -15 -15h-66q-15 0 -15 13v572q0 5 -1.5 4.5t-3.5 -4.5l-220 -572q-6 -13 -19 -13h-48q-15 0 -20 12l-217 567q-1 5 -3 5t-2 -5v-566 q0 -7 -3 -10t-11 -3h-54q-14 0 -14 15z" />
<glyph unicode="N" horiz-adv-x="757" d="M649 742q6 0 8.5 -2.5t2.5 -9.5v-718q0 -12 -13 -12h-49q-8 0 -12.5 1.5t-8.5 6.5l-386 561q-4 7 -7.5 6t-3.5 -7v-555q0 -13 -14 -13h-56q-13 0 -13 13v715q0 8 2.5 11t10.5 3h57q8 0 12 -2t9 -8l375 -549q5 -6 9 -6q6 0 6 9v544q0 12 12 12h59z" />
<glyph unicode="O" horiz-adv-x="764" d="M212.5 34q-71.5 44 -109.5 129t-38 205q0 121 38.5 207.5t110 131.5t169.5 45q97 0 168.5 -45t109.5 -131t38 -207q0 -120 -38 -205t-109.5 -129.5t-169.5 -44.5t-169.5 44zM545.5 138q53.5 75 53.5 230q0 158 -54.5 234.5t-161.5 76.5q-109 0 -163.5 -77t-54.5 -234 q0 -155 54.5 -230t164.5 -75q108 0 161.5 75z" />
<glyph unicode="P" horiz-adv-x="690" d="M564.5 364.5q-71.5 -54.5 -192.5 -54.5h-170q-9 0 -9 -9v-286q0 -15 -15 -15h-68q-13 0 -13 13v715q0 8 2.5 11t9.5 3h252q125 0 200 -53.5t75 -162.5q0 -107 -71.5 -161.5zM491 636q-47 33 -135 33h-150q-13 0 -13 -12v-260q0 -8 2 -11t7 -3h161q82 0 128.5 36.5 t46.5 109.5q0 74 -47 107z" />
<glyph unicode="Q" horiz-adv-x="765" d="M103 577q38 86 109.5 130.5t169.5 44.5t169.5 -44.5t109.5 -130.5t38 -208q0 -233 -140 -327q-4 -3 -4 -9q0 -12 18.5 -30.5t48 -33.5t60.5 -19q10 -1 10 -9v-47q0 -11 -6 -14.5t-21 -3.5q-48 0 -96.5 28t-92.5 90q-4 6 -15 4q-33 -8 -79 -8q-97 0 -168.5 43.5 t-110 128.5t-38.5 207t38 208zM219.5 137.5q54.5 -74.5 162.5 -74.5t162.5 75t54.5 230q0 311 -217 311t-217 -312q0 -155 54.5 -229.5z" />
<glyph unicode="R" horiz-adv-x="696" d="M628 12q0 -12 -12 -12h-73q-11 0 -16 12l-129 315q-3 6 -8 9t-16 3h-169q-12 0 -12 -11v-312q0 -9 -3.5 -12.5t-13.5 -3.5h-65q-8 0 -11 3t-3 10v715q0 8 2.5 11t9.5 3h279q119 0 184 -49t65 -143q0 -79 -42.5 -127.5t-103.5 -66.5q-4 -1 -5 -4t1 -6l140 -327q1 -2 1 -7z M493 440q44 32 44 101q0 65 -39 98t-115 33h-176q-14 0 -14 -11v-240q0 -13 9 -13h158q89 0 133 32z" />
<glyph unicode="S" horiz-adv-x="641" d="M328 679q-75 0 -118 -33t-43 -92q0 -78 107 -114l145 -48q88 -29 127.5 -77.5t39.5 -118.5q0 -96 -71 -151t-194 -55q-90 0 -158.5 32t-110.5 93q-4 8 -4 10q0 7 10 14l36 25q9 6 14 6q6 0 11 -6q43 -55 85 -78t113 -23q84 0 130.5 30t46.5 93q0 39 -24.5 66.5 t-88.5 51.5l-152 52q-79 27 -116.5 77.5t-37.5 111.5q0 62 31.5 109t89 72.5t132.5 25.5q73 0 132.5 -26t101.5 -73q5 -5 5 -10t-5 -9l-46 -36q-3 -3 -6 -3t-12 9q-64 75 -170 75z" />
<glyph unicode="T" horiz-adv-x="645" d="M42 731q0 11 12 11h538q12 0 12 -11v-52q0 -6 -3 -8t-9 -2h-203q-6 0 -8.5 -2t-2.5 -8v-646q0 -13 -12 -13h-72q-12 0 -12 13v645q0 7 -2 9t-8 2h-218q-6 0 -9 2t-3 8v52z" />
<glyph unicode="U" horiz-adv-x="709" d="M554.5 52.5q-67.5 -62.5 -199.5 -62.5q-139 0 -203 67t-64 207v464q0 14 11 14h72q12 0 12 -13v-486q0 -91 44.5 -135t133.5 -44t134.5 44.5t45.5 137.5v483q0 13 11 13h59q11 0 11 -12v-483q0 -132 -67.5 -194.5z" />
<glyph unicode="V" horiz-adv-x="707" d="M660.5 737.5q2.5 -4.5 0.5 -9.5l-253 -713q-3 -8 -8 -11.5t-14 -3.5h-68q-20 0 -24 14l-248 713q-1 2 -1 5q0 10 12 10h69q12 0 17 -12l208 -606q3 -9 7 -9t8 10l211 606q3 11 15 11h59q7 0 9.5 -4.5z" />
<glyph unicode="W" horiz-adv-x="1045" d="M997.5 737q3.5 -5 1.5 -13l-206 -709q-2 -8 -7 -11.5t-15 -3.5h-61q-19 0 -23 14l-160 567q-3 11 -7 -1l-162 -565q-2 -8 -7 -11.5t-15 -3.5h-62q-19 0 -23 14l-203 710q-1 2 -1 5q0 13 15 13h64q14 0 17 -12l163 -582q3 -11 6 -11q4 0 6 10l166 584q4 11 18 11h57 q8 0 12 -2.5t6 -9.5l164 -585q3 -9 6 -9t6 9l165 586q2 11 17 11h50q9 0 12.5 -5z" />
<glyph unicode="X" horiz-adv-x="688" d="M644 8q0 -8 -13 -8h-76q-12 0 -16 8l-190 286q-7 10 -11 10t-12 -12l-187 -284q-5 -8 -17 -8h-66q-11 0 -11 6q0 5 6 15l229 345q5 7 5 12t-5 13l-224 336q-2 4 -2 7q0 8 8 8h81q7 0 10.5 -2t6.5 -7l175 -267q4 -7 9 -7q6 0 10 7l175 267q5 9 16 9h73q6 0 7 -4t-2 -9 l-222 -331q-4 -5 -4 -11t4 -11l237 -355q6 -9 6 -13z" />
<glyph unicode="Y" horiz-adv-x="675" d="M633.5 738q2.5 -4 -1.5 -10l-238 -398q-4 -6 -5 -12.5t-1 -20.5v-280q0 -9 -4.5 -13t-14.5 -4h-60q-16 0 -16 15v278q0 9 -1.5 14t-6.5 13l-241 406q-3 5 -3 8q0 8 14 8h72q9 0 12.5 -2.5t8.5 -9.5l186 -320q6 -12 11 -12q4 0 11 10l185 322q4 7 8 9.5t13 2.5h62 q7 0 9.5 -4z" />
<glyph unicode="Z" horiz-adv-x="631" d="M50 2.5q-3 2.5 -3 9.5v23q0 7 2 12t9 15l389 596q2 4 2 6q0 4 -7 4h-368q-11 0 -11 11v53q0 10 10 10h500q9 0 9 -10v-26q0 -9 -8 -20l-395 -602q-3 -4 -1.5 -6.5t5.5 -2.5h387q11 0 11 -9v-55q0 -11 -12 -11h-509q-7 0 -10 2.5z" />
<glyph unicode="[" horiz-adv-x="287" d="M102 742h161q9 0 9 -7v-41q0 -8 -9 -8h-86q-12 0 -12 -13l-1 -772q0 -6 2.5 -8t8.5 -2h85q11 0 11 -10v-35q0 -11 -11 -11h-155q-15 0 -15 13v884q0 10 12 10z" />
<glyph unicode="\" horiz-adv-x="342" d="M259 -31l-246 757q-1 3 -1 8q0 8 9 8h44q10 0 13 -9l251 -768l1 -3q0 -6 -9 -6h-44q-12 0 -18 13z" />
<glyph unicode="]" horiz-adv-x="287" d="M197 -152q0 -13 -15 -13h-155q-11 0 -11 11v35q0 10 11 10h85q6 0 8.5 2t2.5 8l-1 772q0 13 -12 13h-86q-9 0 -9 8v41q0 7 9 7h161q12 0 12 -10v-884z" />
<glyph unicode="^" horiz-adv-x="476" d="M244 423q-3 6 -7 6t-7 -6l-112 -282q-2 -4 -5.5 -5.5t-9.5 -1.5h-45q-12 0 -7 14l146 356q7 17 18 26.5t22 9.5q12 0 22.5 -9t17.5 -27l147 -359q1 -2 1 -6q0 -7 -10 -7h-43q-14 0 -17 9z" />
<glyph unicode="_" horiz-adv-x="518" d="M456 -104q0 -7 -3.5 -10t-12.5 -3l-365 -1q-13 0 -13 12v44q0 12 9 12h375q10 0 10 -10v-44z" />
<glyph unicode="`" horiz-adv-x="285" d="M31 751.5q3 1.5 7 -0.5l232 -96q8 -4 4 -14l-8 -22q-2 -7 -5.5 -8.5t-10.5 0.5l-228 72q-16 4 -11 17l16 46q1 4 4 5.5z" />
<glyph unicode="a" horiz-adv-x="548" d="M207 -10q-78 0 -122.5 39.5t-44.5 105.5q0 80 67.5 126t195.5 54l78 6q17 2 17 15v27q0 54 -33.5 85.5t-90.5 31.5q-88 0 -144 -80q-3 -5 -6 -6.5t-8 0.5l-54 18q-5 2 -5 7q0 3 3 9q30 53 85.5 82.5t131.5 29.5q98 0 150 -45.5t52 -125.5v-354q0 -9 -3 -12t-11 -3h-50 q-12 0 -14 16l-2 46q-1 7 -5 7t-9 -5q-77 -74 -178 -74zM383 270l-65 -6q-93 -6 -143.5 -36t-50.5 -83q0 -43 30.5 -68t81.5 -25q31 0 61 11t53 30q23 18 35.5 38.5t12.5 39.5v83q0 16 -15 16z" />
<glyph unicode="b" d="M93 0q-9 0 -12.5 3.5t-3.5 12.5v712q0 14 12 14h62q10 0 10 -14v-245q0 -11 5 -11q3 0 10 5q67 63 160 63q105 0 159.5 -75.5t54.5 -196.5q0 -129 -60.5 -203.5t-167.5 -74.5q-61 0 -101 24.5t-62 54.5q-3 4 -6 4q-4 0 -5 -7l-5 -50q-2 -9 -5.5 -12.5t-12.5 -3.5h-32z M161 179q0 -35 20.5 -64.5t53.5 -47t69 -17.5q72 0 115.5 54t43.5 162q0 102 -39 157.5t-113 55.5q-45 0 -83.5 -20t-66.5 -54v-226z" />
<glyph unicode="c" horiz-adv-x="542" d="M421.5 506q51.5 -34 82.5 -90l2 -8q0 -6 -7 -7l-55 -13l-3 -1q-5 0 -10 8q-32 43 -61.5 63t-67.5 20q-78 0 -124 -57.5t-46 -155.5q0 -99 46.5 -156t125.5 -57q47 0 82.5 23t64.5 71q3 5 6 5.5t7 -1.5l43 -16q7 -3 4 -13q-31 -58 -85 -94.5t-129 -36.5q-73 0 -130 34.5 t-89 96.5t-32 142t32 143.5t89.5 98.5t129.5 35q73 0 124.5 -34z" />
<glyph unicode="d" d="M440 14v43q0 9 -5 9q-3 0 -8 -5q-30 -30 -65.5 -50.5t-91.5 -20.5q-64 0 -114 30t-79 90.5t-29 146.5q0 84 30 148t83 99.5t121 35.5q45 0 78 -14t62 -39q8 -6 11 -6q5 0 5 13v235q0 13 11 13h61q11 0 11 -13v-713q0 -9 -3 -12.5t-13 -3.5h-51q-14 0 -14 14zM372.5 461.5 q-32.5 16.5 -70.5 16.5q-76 0 -122 -57t-46 -161q0 -105 45.5 -157t116.5 -52q39 0 71.5 18.5t51 46.5t18.5 56v241q-32 32 -64.5 48.5z" />
<glyph unicode="e" horiz-adv-x="581" d="M156.5 143q23.5 -41 63.5 -65t88 -24q100 0 156 83q4 4 7 4.5t7 -1.5l42 -21q8 -5 2 -14q-39 -60 -93 -87.5t-129 -27.5q-73 0 -131 34t-90.5 95.5t-32.5 140.5q0 85 33 148.5t90.5 97.5t129.5 34t126.5 -32t84.5 -93.5t30 -145.5v-4q0 -9 -3 -13.5t-12 -4.5h-383 q-9 0 -9 -15q0 -48 23.5 -89zM439 302q11 0 14 2.5t3 11.5q0 44 -18.5 81.5t-54 60t-82.5 22.5q-51 0 -89 -25.5t-58 -66t-19 -86.5h304z" />
<glyph unicode="f" horiz-adv-x="379" d="M355 520v-43q0 -9 -10 -9h-114q-8 0 -8 -9v-445q0 -14 -12 -14h-61q-11 0 -11 13v447q0 8 -7 8h-98q-10 0 -10 9v43q0 10 11 10h95q9 0 9 10v73q0 129 125 129h83q13 0 13 -12v-39q0 -10 -11 -10h-70q-58 0 -58 -72v-70q0 -9 9 -9h115q10 0 10 -10z" />
<glyph unicode="g" horiz-adv-x="602" d="M575 523v-35q0 -10 -4.5 -14.5t-15.5 -3.5q-33 0 -52 -9q-24 -10 -20 -23q1 -4 6 -15t8 -24.5t3 -28.5q0 -71 -55.5 -116t-161.5 -45q-71 0 -102 -12t-31 -31q0 -15 21 -22.5t70 -10.5l129 -7q86 -5 128 -41t42 -98q0 -76 -66.5 -119t-189.5 -43q-127 0 -193.5 36.5 t-66.5 104.5q0 67 94 113q11 5 0 11q-46 20 -46 59q0 22 20.5 42t58.5 33q5 1 5 5q0 5 -5 7q-44 23 -65 55.5t-21 78.5q0 78 59 123t167 45q95 0 150 -45q7 -5 10 -5q4 0 11 5q19 19 44.5 32.5t49.5 13.5q19 0 19 -16zM386.5 290q34.5 28 34.5 81q0 54 -35 84t-103 30 q-66 0 -103 -30.5t-37 -83.5q0 -52 36.5 -80.5t103.5 -28.5q69 0 103.5 28zM195 65q-18 1 -41 -10.5t-39 -32.5t-16 -46q0 -48 49 -73.5t145 -25.5q169 0 169 100q0 35 -23.5 55t-76.5 23z" />
<glyph unicode="h" horiz-adv-x="584" d="M78 13v716q0 13 11 13h59q11 0 11 -12v-267q0 -11 9 -3q57 44 97 62t88 18q77 0 118.5 -41t41.5 -111v-372q0 -16 -15 -16h-56q-13 0 -13 13v357q0 50 -25.5 77t-78.5 27q-42 0 -76.5 -18.5t-86.5 -62.5v-378q0 -15 -16 -15h-55q-13 0 -13 13z" />
<glyph unicode="i" horiz-adv-x="239" d="M165 644q0 -10 -4 -14.5t-14 -4.5h-58q-15 0 -15 17v84q0 16 14 16h63q6 0 10 -4t4 -11v-83zM161 17q0 -10 -4 -13.5t-14 -3.5h-51q-9 0 -12 3t-3 11v502q0 14 12 14h61q11 0 11 -13v-500z" />
<glyph unicode="j" horiz-adv-x="239" d="M165 644q0 -19 -17 -19h-59q-15 0 -15 17v84q0 7 4 11.5t10 4.5h64q6 0 9.5 -4t3.5 -11v-83zM130.5 -136.5q-31.5 -33.5 -108.5 -33.5q-43 0 -54.5 2.5t-11.5 10.5v44q0 11 10 11l51 3q32 2 46.5 18.5t14.5 57.5v539q0 14 12 14h61q11 0 11 -13v-546q0 -74 -31.5 -107.5z " />
<glyph unicode="k" horiz-adv-x="564" d="M537 9q0 -9 -11 -9h-70q-6 0 -10 2.5t-8 9.5l-151 259q-2 5 -5 5.5t-7 -3.5l-106 -107q-7 -7 -7 -20v-129q0 -10 -4 -13.5t-14 -3.5h-51q-9 0 -12 3t-3 11v714q0 14 11 14h61q12 0 12 -13v-464q0 -10 3 -10t7 6l247 257q11 12 21 12h61q12 0 12 -7q0 -3 -7 -12l-158 -161 q-4 -6 -4 -9t3 -8l188 -317q2 -2 2 -7z" />
<glyph unicode="l" horiz-adv-x="239" d="M162 17q0 -10 -4 -13.5t-14 -3.5h-52q-9 0 -12 3t-3 11l1 714q0 14 12 14h60q12 0 12 -13v-712z" />
<glyph unicode="m" horiz-adv-x="906" d="M77 13v504q0 13 11 13h60q10 0 10 -11v-58q0 -12 10 -3q54 44 92 63t85 19q56 0 92.5 -25t49.5 -63q2 -3 4 -3q3 0 10 5q52 44 93.5 65t87.5 21q72 0 112.5 -41t40.5 -111v-372q0 -16 -15 -16h-56q-13 0 -13 13v357q0 50 -24 77t-72 27q-40 0 -75 -19.5t-68 -48.5 q-8 -8 -11 -14t-3 -15v-361q0 -16 -15 -16h-56q-13 0 -13 13v357q0 104 -96 104q-40 0 -73.5 -18.5t-83.5 -62.5v-378q0 -8 -3.5 -11.5t-11.5 -3.5h-55q-14 0 -14 13z" />
<glyph unicode="n" horiz-adv-x="584" d="M77 13v504q0 13 11 13h60q11 0 11 -11v-58q0 -11 9 -3q56 44 95.5 63t88.5 19q76 0 118.5 -41t42.5 -110v-373q0 -16 -15 -16h-56q-13 0 -13 13v357q0 50 -25.5 77t-78.5 27q-42 0 -77.5 -18.5t-86.5 -62.5v-378q0 -8 -3.5 -11.5t-11.5 -3.5h-55q-14 0 -14 13z" />
<glyph unicode="o" d="M166.5 24.5q-57.5 34.5 -89 96.5t-31.5 141q0 81 32.5 144t90 98.5t131.5 35.5t131.5 -35.5t89 -98.5t31.5 -143q0 -79 -32 -141t-89.5 -97t-131.5 -35q-75 0 -132.5 34.5zM422.5 109.5q43.5 56.5 43.5 155.5q0 98 -44.5 155.5t-121.5 57.5q-78 0 -123 -57.5t-45 -155.5 t45 -155t124 -57q78 0 121.5 56.5z" />
<glyph unicode="p" horiz-adv-x="597" d="M160 515v-42q0 -9 5 -9q3 0 8 5q21 21 37 34t47 25t73 12q63 0 112.5 -30t78 -90t28.5 -147q0 -88 -28.5 -152t-80.5 -97.5t-121 -33.5q-83 0 -142 50q-7 7 -11 7q-5 0 -5 -13v-186q0 -13 -11 -13h-62q-11 0 -11 13v666q0 8 3.5 12t12.5 4h53q14 0 14 -15zM225.5 67.5 q32.5 -16.5 71.5 -16.5q75 0 120.5 57t45.5 164q0 104 -45 155.5t-116 51.5q-40 0 -72 -17.5t-50.5 -44.5t-18.5 -53v-247q32 -33 64.5 -49.5z" />
<glyph unicode="q" d="M507 530q8 0 11.5 -4t3.5 -13v-665q0 -13 -12 -13h-61q-11 0 -11 13v184q0 14 -4 14q-3 0 -11 -6q-29 -22 -67 -36t-81 -14q-70 0 -121 34t-78.5 96.5t-27.5 146.5q0 82 27.5 143.5t79 95.5t122.5 34q65 0 101.5 -20.5t63.5 -50.5q5 -5 6 -5q3 0 5 8l7 42q2 9 5.5 12.5 t12.5 3.5h29zM438 351q0 34 -18.5 64t-51 48t-71.5 18q-71 0 -117 -54.5t-46 -158.5t45 -160.5t119 -56.5q40 0 77 17t63 47v236z" />
<glyph unicode="r" horiz-adv-x="383" d="M77 13v504q0 13 11 13h58q11 0 11 -11v-65q0 -6 3.5 -7t7.5 4q76 89 155 89q35 0 35 -13v-60q0 -10 -9 -8q-18 3 -45 3q-29 0 -63 -17t-57 -44t-23 -55v-331q0 -15 -15 -15h-55q-14 0 -14 13z" />
<glyph unicode="s" horiz-adv-x="512" d="M337.5 462.5q-36.5 18.5 -84.5 18.5q-55 0 -90 -23.5t-35 -61.5q0 -23 17.5 -41.5t63.5 -32.5l127 -38q66 -18 98 -53.5t32 -84.5q0 -46 -28 -81.5t-77 -55t-111 -19.5q-77 0 -137 30.5t-85 79.5q-3 5 -3 8q0 5 5 8l39 22q10 6 15 -1q54 -86 167 -86q59 1 97.5 24.5 t38.5 61.5q0 28 -23 47t-75 34l-103 29q-73 19 -104.5 53t-31.5 83q0 46 25.5 82t72 55.5t106.5 19.5q66 0 118.5 -25t80.5 -68q7 -10 -1 -14l-42 -23q-4 -2 -6 -2q-4 0 -9 5q-21 31 -57.5 49.5z" />
<glyph unicode="t" horiz-adv-x="387" d="M217 468q-8 0 -8 -9v-317q0 -45 15 -62t49 -17h69q11 0 11 -11l-1 -34q0 -10 -12 -13q-26 -5 -94 -5q-63 0 -92 29.5t-29 93.5v334q0 11 -10 11h-80q-11 0 -11 10v42q0 10 10 10h85q7 0 7 8l11 159q0 13 11 13h50q12 0 12 -14v-158q0 -8 8 -8h126q11 0 11 -9v-43 q0 -10 -11 -10h-127z" />
<glyph unicode="u" horiz-adv-x="579" d="M337.5 78.5q39.5 22.5 80.5 64.5v373q0 14 16 14h55q14 0 14 -14l-2 -503q0 -13 -11 -13h-58q-11 0 -11 11v59q0 12 -9 3q-54 -46 -96 -64.5t-86 -18.5q-70 0 -115 42t-45 111v372q0 15 15 15h56q13 0 13 -14v-351q0 -50 27.5 -79.5t75.5 -29.5q41 0 80.5 22.5z" />
<glyph unicode="v" horiz-adv-x="547" d="M517.5 525.5q2.5 -4.5 0.5 -9.5l-203 -501q-5 -15 -23 -15h-36q-19 0 -25 14l-202 501q-1 2 -1 5q0 10 12 10h62q11 0 16 -11l157 -393q3 -10 7 -10t9 11l156 392q3 11 15 11h46q7 0 9.5 -4.5z" />
<glyph unicode="w" horiz-adv-x="796" d="M764 525.5q3 -4.5 1 -9.5l-153 -503q-4 -13 -19 -13h-48q-17 0 -21 13l-119 374q-3 9 -7 9q-2 0 -5 -9l-113 -374q-4 -13 -19 -13h-51q-17 0 -21 13l-157 502q-1 2 -1 5q0 10 12 10h59q11 0 16 -11l119 -389q3 -10 7 -10q3 0 8 11l118 389q3 10 14 10h47q12 0 15 -11 l123 -389q3 -10 7 -10t7 11l115 388q5 11 17 11h40q6 0 9 -4.5z" />
<glyph unicode="x" horiz-adv-x="544" d="M517 6q0 -6 -11 -6h-70q-15 0 -21 9l-141 194q-5 8 -8 8t-9 -8l-147 -194q-6 -9 -21 -9h-47q-14 0 -14 9q0 5 7 15l182 232q5 7 5 11t-5 11l-174 236q-3 3 -3 7t3 6.5t8 2.5h67q7 0 11 -2t8 -7l135 -183q5 -6 8 -6q4 0 7 6l131 183q4 5 8 7t12 2h52q10 0 10 -6 q0 -2 -4 -8l-169 -226q-5 -7 -5 -10q0 -5 5 -12l183 -247q7 -10 7 -15z" />
<glyph unicode="y" horiz-adv-x="530" d="M58 -163q-13 2 -13 11v39q0 7 5.5 10t22.5 3h63q24 0 44 17.5t31.5 43.5t11.5 50q0 15 -4 24l-191 478q-1 2 -1 6q0 11 12 11h62q11 0 16 -11l149 -388q3 -9 8 -9q6 0 10 12l147 385q5 11 14 11h47q6 0 9 -4.5t1 -9.5l-220 -563q-27 -68 -67 -93t-109 -25q-35 0 -48 2z " />
<glyph unicode="z" horiz-adv-x="482" d="M33.5 2.5q-2.5 2.5 -2.5 9.5v29q0 8 2.5 13.5t9.5 15.5l291 391l3 6q0 4 -8 4h-265q-6 0 -8.5 2t-2.5 9v37q0 11 10 11h370q9 0 9 -10v-32q0 -13 -10 -26l-292 -392q-4 -5 -3 -8t6 -3h294q11 0 11 -9v-38q0 -12 -13 -12h-392q-7 0 -9.5 2.5z" />
<glyph unicode="{" horiz-adv-x="305" d="M151 714q35 28 93 28h37q9 0 9 -7v-41q0 -8 -9 -8h-25q-36 0 -50 -13t-14 -40v-221q-1 -55 -29.5 -84.5t-70.5 -34.5q-6 -1 -6.5 -3t6.5 -3q42 -3 70.5 -31.5t29.5 -86.5v-223q0 -30 14 -42.5t50 -12.5h23q11 0 11 -10v-35q0 -11 -11 -11h-34q-59 0 -94 28.5t-35 75.5 v225q0 40 -29 69.5t-81 29.5q-6 0 -6 10v34q0 10 6 10q54 1 82 29t28 75v218q0 47 35 75z" />
<glyph unicode="|" horiz-adv-x="261" d="M110 -165q-12 0 -12 13l-1 987q0 12 11 12h44q12 0 12 -12v-989q0 -11 -11 -11h-43z" />
<glyph unicode="}" horiz-adv-x="305" d="M189 421q0 -47 28 -75t82 -29q6 0 6 -10v-34q0 -10 -6 -10q-52 0 -81 -29.5t-29 -69.5v-225q0 -47 -35 -75.5t-94 -28.5h-34q-11 0 -11 11v35q0 10 11 10h23q36 0 50 12.5t14 42.5v223q1 58 29.5 86.5t70.5 31.5q7 1 6.5 3t-6.5 3q-42 5 -70.5 34.5t-29.5 84.5v221 q0 27 -14 40t-50 13h-25q-9 0 -9 8v41q0 7 9 7h37q58 0 93 -28t35 -75v-218z" />
<glyph unicode="~" horiz-adv-x="568" d="M454.5 334q-31.5 -15 -72.5 -15q-28 0 -50 7t-52 20q-28 12 -46 18t-40 6q-33 0 -57.5 -13t-45.5 -34q-3 -4 -6 -4t-6 6l-17 32q-2 4 -2 6q0 5 5 8q32 29 60 44t67 15q26 0 47.5 -6.5t52.5 -20.5q26 -12 46.5 -18.5t43.5 -6.5q32 0 53 11.5t39 31.5q4 5 8 5q5 0 8 -7 l15 -30q2 -4 2 -6q0 -4 -5 -11q-16 -23 -47.5 -38z" />
<glyph unicode="&#xa1;" horiz-adv-x="244" d="M164 419h-83q-10 0 -10 12v85q0 8 3 11t12 3h69q11 0 15 -3.5t4 -12.5v-84q0 -11 -10 -11zM173 -157q0 -8 -9 -8h-82q-5 0 -7.5 3t-1.5 8l21 492q1 7 3.5 9.5t9.5 2.5h29q16 0 16 -14l21 -491v-2z" />
<glyph unicode="&#xa2;" horiz-adv-x="558" d="M511 232q-29 -53 -76 -88.5t-112 -41.5v-85q0 -17 -18 -17h-30q-9 0 -12.5 4t-3.5 12v88q-63 8 -111.5 44t-75 94.5t-26.5 131.5t27 132t75 96t111 46v80q0 14 15 14h35q14 0 14 -13v-79q62 -6 107.5 -39t73.5 -84l2 -8q0 -6 -7 -7l-55 -13l-3 -1q-5 0 -10 8 q-32 43 -61.5 63t-67.5 20q-78 0 -124 -57.5t-46 -155.5q0 -99 46.5 -156t125.5 -57q47 0 82.5 23t64.5 71q3 5 6 5.5t7 -1.5l43 -16q7 -3 4 -13z" />
<glyph unicode="&#xa3;" horiz-adv-x="615" d="M12 11v53q0 9 9 9h30q42 -1 68 36.5t26 110.5q0 39 -11 127q-1 7 -7 7h-90q-8 0 -8 8v40q0 8 8 8h77q8 0 7 8l-14 75q-6 30 -6 57q0 62 28.5 107.5t77 70t106.5 24.5q66 0 123 -31.5t77 -79.5l1 -3q0 -4 -4 -5.5t-5 -1.5l-54 -19q-2 -1 -6 -1q-6 0 -8 5q-34 62 -114 62 q-56 0 -92.5 -32.5t-36.5 -87.5q0 -33 7 -72t16 -68q2 -8 8 -8h155q7 0 7 -6v-42q0 -7 -7 -7h-144q-10 0 -8 -8q7 -39 7 -84q0 -18 -1 -28q-1 -59 -16.5 -95.5t-34.5 -56.5q-7 -9 3 -9h175q51 0 83 17t49 57q1 4 5 6t9 0l50 -13q12 -4 8 -12q-21 -64 -72.5 -96.5 t-126.5 -32.5h-343q-11 0 -11 11z" />
<glyph unicode="&#xa4;" horiz-adv-x="537" d="M163 214q-9 5 -14 -1l-44 -45q-4 -4 -9 -4q-6 0 -11 4l-23 25q-4 4 -4 9t4 8l44 45q3 5 3 8q0 5 -3 9q-28 47 -28 101q0 58 31 104q4 8 -2 13l-44 45q-4 4 -4 9q0 6 4 10l24 24q5 5 10 5q4 0 8 -4l45 -46q6 -5 14 -1q47 31 103 31q55 0 105 -32q6 -5 12 1l48 48 q3 3 6.5 3t5.5 -3l31 -31q5 -6 0 -12l-49 -49q-4 -4 -1 -11q32 -48 32 -104q0 -60 -32 -104q-3 -7 1 -11l49 -48q6 -7 0 -13l-30 -31q-6 -6 -12 0l-47 48q-6 6 -12 2q-49 -33 -106 -33t-105 31zM332 266q28 17 44.5 45.5t16.5 61.5t-16.5 61.5t-44.5 45.5t-63 17t-63.5 -17 t-45 -45.5t-16.5 -61.5t16.5 -61.5t45 -45.5t63.5 -17t63 17z" />
<glyph unicode="&#xa5;" horiz-adv-x="609" d="M599.5 738q2.5 -4 -1.5 -10l-231 -383h137q10 0 10 -10v-32q0 -7 -4 -10t-13 -3h-140v-93h147q10 0 10 -10v-32q0 -14 -17 -14h-140v-124q0 -17 -20 -17h-60q-16 0 -16 15v126h-145q-7 0 -9.5 2.5t-2.5 9.5v32q0 11 8 11h149v93h-145q-12 0 -12 12v32q0 11 8 11h128 l-227 382q-2 3 -2 7q0 9 13 9h75q9 0 13 -2.5t8 -9.5l185 -321q1 -1 3.5 -5.5t5.5 -4.5q4 0 8 9l188 322q5 8 8.5 10t12.5 2h59q7 0 9.5 -4z" />
<glyph unicode="&#xa6;" horiz-adv-x="261" d="M110 438q-12 0 -12 12l-1 385q0 12 11 12h44q12 0 12 -12v-387q0 -10 -11 -10h-43zM110 -165q-12 0 -12 13l-1 384q0 13 11 13h44q12 0 12 -13v-386q0 -11 -11 -11h-43z" />
<glyph unicode="&#xa7;" horiz-adv-x="488" d="M427 145.5q24 -31.5 24 -72.5q0 -42 -24.5 -75t-69.5 -52t-104 -19q-70 0 -128 29.5t-85 78.5q-5 11 0 14l43 23q4 2 6 2q5 0 9 -6q25 -37 64.5 -58.5t91.5 -21.5t84.5 20.5t32.5 57.5q0 28 -23 51.5t-80 45.5l-90 35q-68 26 -99 61.5t-31 85.5q0 46 28 80.5t74 52.5 q-57 30 -78.5 61.5t-21.5 71.5t23.5 72t67 50.5t99.5 18.5q62 0 112 -26.5t76 -66.5q6 -10 -1 -14l-39 -22q-6 -2 -7 -2q-5 0 -10 5q-54 65 -126 65q-54 0 -84.5 -20t-30.5 -53q0 -24 18.5 -45t66.5 -41l85 -34q79 -32 113.5 -71t34.5 -93q0 -47 -25 -78t-68 -52 q48 -27 72 -58.5zM344 260.5q28 24.5 28 59.5t-18 58.5t-71 45.5l-57 22q-43 -4 -73 -30.5t-30 -59.5q0 -30 18.5 -49.5t72.5 -41.5l63 -26q39 -3 67 21.5z" />
<glyph unicode="&#xa8;" horiz-adv-x="250" d="M93 647q0 -9 -3.5 -12t-12.5 -3h-53q-8 0 -11 2.5t-3 10.5v84q0 7 2.5 10t8.5 3h61q6 0 8.5 -2.5t2.5 -9.5v-83zM240 647q0 -9 -3.5 -12t-13.5 -3h-52q-9 0 -12 2.5t-3 10.5v84q0 13 11 13h62q6 0 8.5 -2.5t2.5 -9.5v-83z" />
<glyph unicode="&#xa9;" horiz-adv-x="830" d="M223.5 41q-87.5 51 -138.5 138.5t-51 191.5q0 103 51 190.5t138.5 139t191.5 51.5q103 0 190.5 -51.5t139 -139t51.5 -190.5q0 -104 -51.5 -191.5t-139 -138.5t-190.5 -51q-104 0 -191.5 51zM574.5 90q72.5 40 115.5 113t43 168q0 94 -43 167.5t-115.5 114t-159.5 40.5 q-88 0 -161 -40.5t-115 -114t-42 -167.5q0 -96 42 -169t114.5 -112.5t161.5 -39.5q87 0 159.5 40zM514 559.5q41 -28.5 67 -73.5q4 -7 -4 -10l-49 -14h-2q-5 0 -8 6q-39 65 -97 65q-55 0 -89.5 -43t-34.5 -116t35 -116.5t91 -43.5q37 0 65 20t47 54q3 6 12 2l34 -13 q6 -1 3 -10q-24 -46 -66.5 -76.5t-100.5 -30.5q-56 0 -100.5 26.5t-69 75t-24.5 110.5q0 63 25 112t69 76.5t100 27.5t97 -28.5z" />
<glyph unicode="&#xaa;" horiz-adv-x="401" d="M289 720.5q33 -29.5 33 -82.5v-165q0 -16 1.5 -25.5t7.5 -24.5l1 -3q0 -8 -14 -8h-38q-6 0 -8 2t-3 7l-5 28q-1 4 -3 4.5t-7 -3.5q-26 -23 -49.5 -33.5t-54.5 -10.5q-52 0 -81 24.5t-29 67.5q0 97 165 111l48 5q11 2 11 10v15q0 66 -77 66q-28 0 -47.5 -10t-35.5 -35 q-3 -6 -11 -3l-39 12q-4 1 -2 10q38 71 139 71q65 0 98 -29.5zM120 463.5q19 -14.5 50 -14.5q41 0 69 27q25 22 25 43v45q0 6 -2 8.5t-9 1.5l-40 -3q-54 -5 -83 -22.5t-29 -47.5q0 -23 19 -37.5z" />
<glyph unicode="&#xab;" horiz-adv-x="446" d="M217 80q1 -1 1 -3q0 -4 -10 -4h-29q-8 0 -10 6l-126 167q-4 5 -4 12q0 5 3 9l127 177q3 4 5 5t5 1h31q4 0 6.5 -3t0.5 -7l-99 -175q-4 -10 0 -16zM395 80q1 -1 1 -3q0 -4 -10 -4h-29q-8 0 -10 6l-125 167q-5 7 -5 12q0 3 4 9l127 177q2 4 4 5t5 1h31q4 0 6.5 -3t0.5 -7 l-98 -175q-2 -4 -2 -8q0 -2 2 -8z" />
<glyph unicode="&#xac;" horiz-adv-x="557" d="M496 396v-189q0 -7 -3 -10t-10 -3h-46q-12 0 -12 10l-1 136l-349 -1q-13 0 -13 12v43q0 12 9 12h415q10 0 10 -10z" />
<glyph unicode="&#xad;" horiz-adv-x="381" d="M319 245q0 -14 -17 -14h-227q-7 0 -10 2.5t-3 9.5v44q0 11 9 11l238 1q10 0 10 -10v-44z" />
<glyph unicode="&#xae;" horiz-adv-x="545" d="M153 307q-55 32 -87 86.5t-32 119.5t32 120t87 87t120 32q64 0 119 -32t87 -87t32 -120t-32 -119.5t-86.5 -86.5t-119.5 -32t-120 32zM410.5 372.5q52.5 52.5 52.5 140.5q0 58 -24 102t-67 68t-99 24q-86 0 -138.5 -53t-52.5 -141t52.5 -140.5t138.5 -52.5 q85 0 137.5 52.5zM361.5 395q-1.5 -2 -3.5 -2h-35q-3 0 -5 4l-38 102q0 1 -0.5 2.5t-6.5 1.5h-46q-4 0 -4 -4v-100q0 -6 -5 -6h-31q-5 0 -5 5v227q0 5 3 5h103q38 0 59 -15.5t21 -44.5q0 -46 -47 -62q-2 0 -1 -3l42 -105q1 -3 -0.5 -5zM325 566q0 31 -46 31h-51h-2.5t-2 -1 t-0.5 -3v-53q0 -4 4 -4h55q43 0 43 30z" />
<glyph unicode="&#xaf;" horiz-adv-x="316" d="M306 679q0 -13 -15 -13h-270q-6 0 -8.5 3t-2.5 9v39q0 5 2 8t6 3h280q4 0 6 -3t2 -7v-39z" />
<glyph unicode="&#xb0;" horiz-adv-x="464" d="M370.5 617q-20.5 -36 -57 -56.5t-81.5 -20.5q-69 0 -114 44.5t-45 114.5t45 114.5t114 44.5q45 0 81.5 -20.5t57 -56.5t20.5 -82t-20.5 -82zM302 771q-27 28 -72 28q-44 0 -71 -27.5t-27 -71.5q0 -47 26.5 -76t72.5 -29q45 0 71.5 28.5t26.5 74.5q0 45 -27 73z" />
<glyph unicode="&#xb1;" horiz-adv-x="557" d="M496 473v-43q0 -13 -16 -13h-168v-174q0 -10 -10 -10h-42q-14 0 -14 16v167h-171q-13 0 -13 12v43q0 11 9 11h175v172q0 7 2.5 10t8.5 3h43q12 0 12 -9v-175h174q10 0 10 -10zM496 122v-43q0 -14 -16 -14l-405 -1q-13 0 -13 12v43q0 12 9 12h415q10 0 10 -9z" />
<glyph unicode="&#xb2;" horiz-adv-x="452" d="M200 580q53 50 74 82t21 66q0 38 -27.5 60t-65.5 22q-29 0 -58 -15t-49 -47q-3 -7 -13 -2l-28 17q-8 5 -2 13q28 41 68.5 61t86.5 20q63 0 105 -34t42 -97q0 -40 -22 -75.5t-79 -89.5l-127 -119q-4 -2 -3 -4.5t7 -2.5h221q8 0 8 -7v-36q0 -8 -8 -8h-292q-6 0 -8 2.5 t-2 7.5v26q0 7 3 12t14 14z" />
<glyph unicode="&#xb3;" horiz-adv-x="467" d="M76 795q58 62 146 62q72 0 114.5 -33t42.5 -85q0 -35 -21.5 -62t-58.5 -40q-7 -2 -7 -4q0 -1 7 -5q41 -11 67.5 -41.5t26.5 -73.5q0 -61 -46 -98t-133 -37q-96 0 -158 66q-2 4 -2 6t4 5l27 21q7 7 10 0q28 -29 56.5 -40.5t66.5 -11.5q55 0 85.5 23.5t30.5 63.5 q0 43 -35.5 68t-83.5 25l-56 1q-7 0 -7 6v33q0 4 7 6l46 1q49 0 82 24t33 61q0 32 -28 54t-70 22q-63 0 -112 -49q-4 -3 -6 -3t-6 3l-22 22q-4 4 0 10z" />
<glyph unicode="&#xb4;" horiz-adv-x="285" d="M274 700q1 -2 1 -6q0 -8 -11 -11l-229 -72q-2 -1 -6 -1q-7 0 -10 9l-8 22q-1 2 -1 5q0 8 6 9l231 96q1 1 4 1q6 0 8 -6z" />
<glyph unicode="&#xb6;" horiz-adv-x="561" d="M435 689q-7 0 -7 -8v-757q0 -9 -7 -9h-41q-9 0 -9 9v759q0 2 -2 4t-5 2h-36q-7 0 -7 -8v-758q0 -8 -8 -8h-42q-8 0 -8 8v377q0 5 -5 5q-64 2 -112 30.5t-74 76t-26 105.5q0 59 27 110.5t80 83t128 31.5h202q7 0 7 -6v-41q0 -6 -7 -6h-48z" />
<glyph unicode="&#xb7;" horiz-adv-x="201" d="M155 335q0 -8 -3.5 -11.5t-13.5 -3.5h-79q-8 0 -11 3t-3 11v81q0 12 9 12h92q5 0 7 -2.5t2 -8.5v-81z" />
<glyph unicode="&#xb8;" horiz-adv-x="221" d="M179.5 -189q-31.5 -21 -77.5 -21q-50 0 -88 22q-5 4 -4 9l11 26q3 5 9 2q28 -19 62 -19q57 0 57 38q0 22 -19.5 33t-61.5 13q-5 0 -6.5 1t0.5 5l37 85h47l-23 -57q-1 -2 0 -3.5t4 -1.5q44 -3 64 -24t20 -50q0 -37 -31.5 -58z" />
<glyph unicode="&#xb9;" horiz-adv-x="367" d="M272 422v-36q0 -2 -2 -4t-5 -2h-221q-3 0 -5 2t-2 4v36q0 6 7 6h80q5 0 5 3v346q0 7 -6 5l-78 -29h-2q-6 0 -6 8v25q0 7 6 9l93 47q13 5 19 5h27q7 0 7 -8v-407q0 -4 4 -4h72q7 0 7 -6z" />
<glyph unicode="&#xba;" horiz-adv-x="411" d="M321.5 703q43.5 -48 43.5 -126q0 -76 -43 -123t-117 -47t-116.5 47t-42.5 123q0 78 44 126t115 48q73 0 116.5 -48zM135 671q-24 -33 -24 -91q0 -60 24 -93.5t70 -33.5q47 0 71.5 33.5t24.5 93.5q0 58 -25 91t-71 33t-70 -33z" />
<glyph unicode="&#xbb;" horiz-adv-x="446" d="M151 257q0 6 -2 8l-98 175l-1 4q0 6 7 6h31q3 0 5.5 -1t4.5 -5l127 -177q3 -4 3 -9q0 -7 -4 -12l-125 -167q-4 -6 -10 -6h-29q-13 0 -10 7l99 169q2 3 2 8zM329 257q0 6 -2 8l-98 175q-1 1 -1 4q0 6 8 6h31q3 0 5 -1t4 -5l127 -177q4 -6 4 -9q0 -5 -5 -12l-125 -167 q-4 -6 -10 -6h-29q-13 0 -9 7l98 169q2 3 2 8z" />
<glyph unicode="&#xbc;" horiz-adv-x="891" d="M238 318v-36q0 -2 -2 -4t-5 -2h-221q-3 0 -5 2t-2 4v36q0 6 7 6h80q5 0 5 3v346q0 7 -6 5l-78 -29h-2q-6 0 -6 8v25q0 7 6 9l93 47q13 5 19 5h27q7 0 7 -8v-407q0 -4 4 -4h72q7 0 7 -6zM206 5q-4 -5 -8 -7t-11 -2h-26q-11 0 -11 9q0 6 3 10l484 728q3 5 7.5 6t8.5 1h33 q13 0 6 -11zM736.5 465.5q3.5 1.5 9.5 1.5h42q7 0 7 -8v-283q0 -6 5 -6h59q9 0 9 -6v-31q0 -8 -9 -8h-58q-6 0 -6 -6v-110q0 -9 -10 -9h-43q-8 0 -8 8v113q0 4 -5 4h-204q-10 0 -10 8v32q0 7 10 21l205 274q3 4 6.5 5.5zM727 170q6 0 6 5v210q0 7 -3 7q-2 0 -6 -5l-153 -208 q-3 -4 -2 -6.5t6 -2.5h152z" />
<glyph unicode="&#xbd;" horiz-adv-x="950" d="M238 318v-36q0 -2 -2 -4t-5 -2h-221q-3 0 -5 2t-2 4v36q0 6 7 6h80q5 0 5 3v346q0 7 -6 5l-78 -29h-2q-6 0 -6 8v25q0 7 6 9l93 47q13 5 19 5h27q7 0 7 -8v-407q0 -4 4 -4h72q7 0 7 -6zM262 5q-4 -5 -8 -7t-11 -2h-26q-11 0 -11 9q0 6 3 10l484 728q3 5 7.5 6t8.5 1h33 q13 0 6 -11zM741 196q53 50 74 82t21 66q0 38 -27.5 60t-65.5 22q-29 0 -58 -15t-49 -47q-3 -7 -13 -2l-28 17q-8 5 -2 13q28 41 68.5 61t86.5 20q63 0 105 -34t42 -97q0 -40 -22 -75.5t-79 -89.5l-127 -119q-4 -2 -3 -4.5t7 -2.5h221q8 0 8 -7v-36q0 -8 -8 -8h-292 q-6 0 -8 2.5t-2 7.5v26q0 7 3 12t14 14z" />
<glyph unicode="&#xbe;" horiz-adv-x="932" d="M42 690q58 62 146 62q72 0 114.5 -33t42.5 -85q0 -35 -21.5 -62t-58.5 -40q-7 -2 -7 -4q0 -1 7 -5q41 -11 67.5 -41.5t26.5 -73.5q0 -61 -46 -98t-133 -37q-96 0 -158 66q-2 4 -2 6t4 5l27 21q7 7 10 0q28 -29 56.5 -40.5t66.5 -11.5q55 0 85.5 23.5t30.5 63.5 q0 43 -35.5 68t-83.5 25l-56 1q-7 0 -7 6v33q0 4 7 6l46 1q49 0 82 24t33 61q0 32 -28 54t-70 22q-63 0 -112 -49q-4 -3 -6 -3t-6 3l-22 22q-4 4 0 10zM306 5q-4 -5 -8 -7t-11 -2h-26q-11 0 -11 9q0 6 3 10l484 728q3 5 7.5 6t8.5 1h33q13 0 6 -11zM773.5 465.5 q3.5 1.5 9.5 1.5h42q7 0 7 -8v-283q0 -6 5 -6h59q9 0 9 -6v-31q0 -8 -9 -8h-58q-6 0 -6 -6v-110q0 -9 -10 -9h-43q-8 0 -8 8v113q0 4 -5 4h-204q-10 0 -10 8v32q0 7 10 21l205 274q3 4 6.5 5.5zM764 170q6 0 6 5v210q0 7 -3 7q-2 0 -6 -5l-153 -208q-3 -4 -2 -6.5t6 -2.5 h152z" />
<glyph unicode="&#xbf;" horiz-adv-x="516" d="M219 514q0 9 4 12.5t14 3.5h70q8 0 11.5 -3t3.5 -11v-85q0 -12 -11 -12h-82q-10 0 -10 11v84zM488.5 -33q1.5 -4 -0.5 -8q-31 -63 -94 -98.5t-142 -35.5q-105 0 -164.5 49.5t-59.5 129.5q0 37 13.5 66t34 49.5t53.5 48.5q34 28 55 49t35 51t14 70q0 5 4 8.5t8 3.5h49 q13 0 13 -14q0 -47 -15.5 -83t-37 -60t-56.5 -54q-42 -37 -62.5 -65t-20.5 -67q0 -52 37.5 -83t99.5 -31q51 0 98 26.5t63 65.5q2 5 4.5 6t8.5 -1l57 -18q4 -1 5.5 -5z" />
<glyph unicode="&#xc0;" horiz-adv-x="727" d="M46 4.5q-3 4.5 0 12.5l259 711q3 8 7 11t13 3h78q19 0 23 -15l256 -710l1 -5q0 -12 -11 -12h-71q-12 0 -16 10l-69 194q-2 4 -4 6t-8 2h-291q-9 0 -12 -8l-71 -195q-3 -9 -15 -9h-60q-6 0 -9 4.5zM478 288q11 0 8 13l-120 329q-3 9 -7 9t-7 -9l-122 -331l-2 -6q0 -5 8 -5 h242zM237 963.5q3 1.5 7 -0.5l232 -96q8 -4 4 -14l-8 -22q-2 -7 -5.5 -8.5t-10.5 0.5l-228 72q-16 4 -11 17l16 46q1 4 4 5.5z" />
<glyph unicode="&#xc1;" horiz-adv-x="727" d="M46 4.5q-3 4.5 0 12.5l259 711q3 8 7 11t13 3h78q19 0 23 -15l256 -710l1 -5q0 -12 -11 -12h-71q-12 0 -16 10l-69 194q-2 4 -4 6t-8 2h-291q-9 0 -12 -8l-71 -195q-3 -9 -15 -9h-60q-6 0 -9 4.5zM478 288q11 0 8 13l-120 329q-3 9 -7 9t-7 -9l-122 -331l-2 -6q0 -5 8 -5 h242zM493 912q1 -2 1 -6q0 -8 -11 -11l-229 -72q-2 -1 -6 -1q-7 0 -10 9l-8 22q-1 2 -1 5q0 8 6 9l231 96q1 1 4 1q6 0 8 -6z" />
<glyph unicode="&#xc2;" horiz-adv-x="727" d="M46 4.5q-3 4.5 0 12.5l259 711q3 8 7 11t13 3h78q19 0 23 -15l256 -710l1 -5q0 -12 -11 -12h-71q-12 0 -16 10l-69 194q-2 4 -4 6t-8 2h-291q-9 0 -12 -8l-71 -195q-3 -9 -15 -9h-60q-6 0 -9 4.5zM478 288q11 0 8 13l-120 329q-3 9 -7 9t-7 -9l-122 -331l-2 -6q0 -5 8 -5 h242zM373 899l-5.5 5.5t-5.5 3.5q-3 0 -12 -9l-58 -50q-5 -4 -8.5 -5t-9.5 -1h-54q-7 0 -7 4q0 3 5 8l102 91q11 11 25 11h39q7 0 11.5 -3t8.5 -6l101 -93q6 -6 6 -9t-7 -3h-59q-11 0 -18 6z" />
<glyph unicode="&#xc3;" horiz-adv-x="727" d="M46 4.5q-3 4.5 0 12.5l259 711q3 8 7 11t13 3h78q19 0 23 -15l256 -710l1 -5q0 -12 -11 -12h-71q-12 0 -16 10l-69 194q-2 4 -4 6t-8 2h-291q-9 0 -12 -8l-71 -195q-3 -9 -15 -9h-60q-6 0 -9 4.5zM478 288q11 0 8 13l-120 329q-3 9 -7 9t-7 -9l-122 -331l-2 -6q0 -5 8 -5 h242zM469.5 873q-17.5 -6 -42.5 -6q-29 0 -69 14q-36 12 -58 12q-17 0 -28 -4.5t-20 -9.5t-12 -7q-5 -3 -7 -3q-4 0 -7 8l-10 27q-1 2 -1 6t5 8q20 15 36 22.5t40 7.5q17 0 32 -3.5t37 -10.5q16 -5 32 -9.5t31 -4.5q17 0 29 5t28 15q5 3 8 3q5 0 8 -8l10 -31q1 -2 1 -5 q0 -5 -9 -10q-16 -10 -33.5 -16z" />
<glyph unicode="&#xc4;" horiz-adv-x="727" d="M46 4.5q-3 4.5 0 12.5l259 711q3 8 7 11t13 3h78q19 0 23 -15l256 -710l1 -5q0 -12 -11 -12h-71q-12 0 -16 10l-69 194q-2 4 -4 6t-8 2h-291q-9 0 -12 -8l-71 -195q-3 -9 -15 -9h-60q-6 0 -9 4.5zM478 288q11 0 8 13l-120 329q-3 9 -7 9t-7 -9l-122 -331l-2 -6q0 -5 8 -5 h242zM330 859q0 -9 -3.5 -12t-12.5 -3h-53q-8 0 -11 2.5t-3 10.5v84q0 7 2.5 10t8.5 3h61q6 0 8.5 -2.5t2.5 -9.5v-83zM477 859q0 -9 -3.5 -12t-13.5 -3h-52q-9 0 -12 2.5t-3 10.5v84q0 13 11 13h62q6 0 8.5 -2.5t2.5 -9.5v-83z" />
<glyph unicode="&#xc5;" horiz-adv-x="727" d="M46 4.5q-3 4.5 0 12.5l259 711q3 8 7 11t13 3h78q19 0 23 -15l256 -710l1 -5q0 -12 -11 -12h-71q-12 0 -16 10l-69 194q-2 4 -4 6t-8 2h-291q-9 0 -12 -8l-71 -195q-3 -9 -15 -9h-60q-6 0 -9 4.5zM478 288q11 0 8 13l-120 329q-3 9 -7 9t-7 -9l-122 -331l-2 -6q0 -5 8 -5 h242zM436 785q-30 -30 -74 -30t-74.5 30.5t-30.5 76.5q0 42 30.5 71.5t74.5 29.5q43 0 73.5 -30t30.5 -73q0 -45 -30 -75zM400 899.5q-16 15.5 -39 15.5t-40 -16t-17 -40q0 -22 17 -39t40 -17t39 16.5t16 39.5q0 25 -16 40.5z" />
<glyph unicode="&#xc6;" horiz-adv-x="1009" d="M959 72q3 -2 3 -8v-53q0 -11 -12 -11h-437q-14 0 -14 14v191q0 7 -7 7h-239q-10 0 -14 -8l-109 -195q-6 -9 -16 -9h-60q-9 0 -9 8q0 3 3 9l396 711q5 8 9.5 11t13.5 3h472q10 0 10 -11l-1 -51q0 -12 -13 -12h-327q-7 0 -10 -2.5t-3 -9.5v-234q0 -11 12 -11h244 q11 0 11 -11v-53q0 -9 -11 -9h-245q-11 0 -11 -11v-243q0 -6 2 -8t8 -2h345q6 0 9 -2zM499 300v339q0 13 -7 13q-8 0 -15 -13l-193 -340q-4 -6 -3 -8.5t7 -2.5h200q11 0 11 12z" />
<glyph unicode="&#xc7;" horiz-adv-x="707" d="M657 185q-14 -48 -48.5 -91t-87 -71t-119.5 -32l-17 -43q-1 -2 0 -3.5t4 -1.5q44 -3 64 -24t20 -50q0 -37 -31.5 -58t-77.5 -21q-50 0 -88 22q-5 4 -4 9l11 26q3 5 9 2q28 -19 62 -19q57 0 57 38q0 22 -19.5 33t-61.5 13q-5 0 -6 1t0 5l31 71q-137 10 -213.5 110.5 t-76.5 270.5q0 118 37.5 203.5t108 131t167.5 45.5q66 0 125.5 -28t98.5 -75t47 -102l1 -7q0 -4 -2.5 -6t-5.5 -2l-75 -6h-2q-3 0 -5 2.5t-3 7.5q-15 65 -62 104t-114 39q-105 0 -160.5 -77.5t-55.5 -231.5q0 -151 55.5 -227.5t165.5 -76.5q71 0 118.5 34.5t76.5 108.5 q2 7 12 4l59 -14q7 -2 5 -14z" />
<glyph unicode="&#xc8;" horiz-adv-x="628" d="M99.5 739q2.5 3 9.5 3h449q10 0 10 -11v-51q0 -12 -13 -12h-349q-8 0 -10.5 -2.5t-2.5 -9.5v-234q0 -11 11 -11h259q11 0 11 -11v-53q0 -9 -11 -9h-259q-11 0 -11 -11v-243q0 -6 2 -8t8 -2h367q6 0 8.5 -2t2.5 -8v-53q0 -11 -11 -11h-459q-8 0 -11 3t-3 11v714 q0 8 2.5 11zM218 963.5q3 1.5 7 -0.5l232 -96q8 -4 4 -14l-8 -22q-2 -7 -5.5 -8.5t-10.5 0.5l-228 72q-16 4 -11 17l16 46q1 4 4 5.5z" />
<glyph unicode="&#xc9;" horiz-adv-x="628" d="M99.5 739q2.5 3 9.5 3h449q10 0 10 -11v-51q0 -12 -13 -12h-349q-8 0 -10.5 -2.5t-2.5 -9.5v-234q0 -11 11 -11h259q11 0 11 -11v-53q0 -9 -11 -9h-259q-11 0 -11 -11v-243q0 -6 2 -8t8 -2h367q6 0 8.5 -2t2.5 -8v-53q0 -11 -11 -11h-459q-8 0 -11 3t-3 11v714 q0 8 2.5 11zM474 912q1 -2 1 -6q0 -8 -11 -11l-229 -72q-2 -1 -6 -1q-7 0 -10 9l-8 22q-1 2 -1 5q0 8 6 9l231 96q1 1 4 1q6 0 8 -6z" />
<glyph unicode="&#xca;" horiz-adv-x="628" d="M99.5 739q2.5 3 9.5 3h449q10 0 10 -11v-51q0 -12 -13 -12h-349q-8 0 -10.5 -2.5t-2.5 -9.5v-234q0 -11 11 -11h259q11 0 11 -11v-53q0 -9 -11 -9h-259q-11 0 -11 -11v-243q0 -6 2 -8t8 -2h367q6 0 8.5 -2t2.5 -8v-53q0 -11 -11 -11h-459q-8 0 -11 3t-3 11v714 q0 8 2.5 11zM354 899l-5.5 5.5t-5.5 3.5q-3 0 -12 -9l-58 -50q-5 -4 -8.5 -5t-9.5 -1h-54q-7 0 -7 4q0 3 5 8l102 91q11 11 25 11h39q7 0 11.5 -3t8.5 -6l101 -93q6 -6 6 -9t-7 -3h-59q-11 0 -18 6z" />
<glyph unicode="&#xcb;" horiz-adv-x="628" d="M99.5 739q2.5 3 9.5 3h449q10 0 10 -11v-51q0 -12 -13 -12h-349q-8 0 -10.5 -2.5t-2.5 -9.5v-234q0 -11 11 -11h259q11 0 11 -11v-53q0 -9 -11 -9h-259q-11 0 -11 -11v-243q0 -6 2 -8t8 -2h367q6 0 8.5 -2t2.5 -8v-53q0 -11 -11 -11h-459q-8 0 -11 3t-3 11v714 q0 8 2.5 11zM311 859q0 -9 -3.5 -12t-12.5 -3h-53q-8 0 -11 2.5t-3 10.5v84q0 7 2.5 10t8.5 3h61q6 0 8.5 -2.5t2.5 -9.5v-83zM458 859q0 -9 -3.5 -12t-13.5 -3h-52q-9 0 -12 2.5t-3 10.5v84q0 13 11 13h62q6 0 8.5 -2.5t2.5 -9.5v-83z" />
<glyph unicode="&#xcc;" horiz-adv-x="290" d="M181 742q12 0 12 -13v-712q0 -10 -4 -13.5t-14 -3.5h-63q-9 0 -12 3t-3 11v714q0 14 12 14h72zM22 963.5q3 1.5 7 -0.5l232 -96q8 -4 4 -14l-8 -22q-2 -7 -5.5 -8.5t-10.5 0.5l-228 72q-16 4 -11 17l16 46q1 4 4 5.5z" />
<glyph unicode="&#xcd;" horiz-adv-x="290" d="M181 742q12 0 12 -13v-712q0 -10 -4 -13.5t-14 -3.5h-63q-9 0 -12 3t-3 11v714q0 14 12 14h72zM278 912q1 -2 1 -6q0 -8 -11 -11l-229 -72q-2 -1 -6 -1q-7 0 -10 9l-8 22q-1 2 -1 5q0 8 6 9l231 96q1 1 4 1q6 0 8 -6z" />
<glyph unicode="&#xce;" horiz-adv-x="290" d="M181 742q12 0 12 -13v-712q0 -10 -4 -13.5t-14 -3.5h-63q-9 0 -12 3t-3 11v714q0 14 12 14h72zM158 899l-5.5 5.5t-5.5 3.5q-3 0 -12 -9l-58 -50q-5 -4 -8.5 -5t-9.5 -1h-54q-7 0 -7 4q0 3 5 8l102 91q11 11 25 11h39q7 0 11.5 -3t8.5 -6l101 -93q6 -6 6 -9t-7 -3h-59 q-11 0 -18 6z" />
<glyph unicode="&#xcf;" horiz-adv-x="290" d="M181 742q12 0 12 -13v-712q0 -10 -4 -13.5t-14 -3.5h-63q-9 0 -12 3t-3 11v714q0 14 12 14h72zM115 859q0 -9 -3.5 -12t-12.5 -3h-53q-8 0 -11 2.5t-3 10.5v84q0 7 2.5 10t8.5 3h61q6 0 8.5 -2.5t2.5 -9.5v-83zM262 859q0 -9 -3.5 -12t-13.5 -3h-52q-9 0 -12 2.5t-3 10.5 v84q0 13 11 13h62q6 0 8.5 -2.5t2.5 -9.5v-83z" />
<glyph unicode="&#xd0;" horiz-adv-x="727" d="M569.5 647q93.5 -91 93.5 -272q0 -375 -399 -375h-147q-14 0 -14 16v321h-57q-8 0 -11 3t-3 11v42q0 13 10 13h61v323q0 7 3 10t11 3q99 0 157 -1q202 -3 295.5 -94zM429.5 101.5q68.5 29.5 101 95.5t32.5 176t-31 173.5t-94.5 91t-168.5 30.5q-20 1 -62 1q-8 0 -8 -14 v-249h158q4 0 7 -3.5t3 -8.5v-42q0 -15 -19 -15h-149v-254q0 -6 2.5 -8.5t9.5 -2.5h38q112 0 180.5 29.5z" />
<glyph unicode="&#xd1;" horiz-adv-x="757" d="M649 742q6 0 8.5 -2.5t2.5 -9.5v-718q0 -12 -13 -12h-49q-8 0 -12.5 1.5t-8.5 6.5l-386 561q-4 7 -7.5 6t-3.5 -7v-555q0 -13 -14 -13h-56q-13 0 -13 13v715q0 8 2.5 11t10.5 3h57q8 0 12 -2t9 -8l375 -549q5 -6 9 -6q6 0 6 9v544q0 12 12 12h59zM497.5 873 q-17.5 -6 -42.5 -6q-29 0 -69 14q-36 12 -58 12q-17 0 -28 -4.5t-20 -9.5t-12 -7q-5 -3 -7 -3q-4 0 -7 8l-10 27q-1 2 -1 6t5 8q20 15 36 22.5t40 7.5q17 0 32 -3.5t37 -10.5q16 -5 32 -9.5t31 -4.5q17 0 29 5t28 15q5 3 8 3q5 0 8 -8l10 -31q1 -2 1 -5q0 -5 -9 -10 q-16 -10 -33.5 -16z" />
<glyph unicode="&#xd2;" horiz-adv-x="764" d="M212.5 34q-71.5 44 -109.5 129t-38 205q0 121 38.5 207.5t110 131.5t169.5 45q97 0 168.5 -45t109.5 -131t38 -207q0 -120 -38 -205t-109.5 -129.5t-169.5 -44.5t-169.5 44zM545.5 138q53.5 75 53.5 230q0 158 -54.5 234.5t-161.5 76.5q-109 0 -163.5 -77t-54.5 -234 q0 -155 54.5 -230t164.5 -75q108 0 161.5 75zM258 963.5q3 1.5 7 -0.5l232 -96q8 -4 4 -14l-8 -22q-2 -7 -5.5 -8.5t-10.5 0.5l-228 72q-16 4 -11 17l16 46q1 4 4 5.5z" />
<glyph unicode="&#xd3;" horiz-adv-x="764" d="M212.5 34q-71.5 44 -109.5 129t-38 205q0 121 38.5 207.5t110 131.5t169.5 45q97 0 168.5 -45t109.5 -131t38 -207q0 -120 -38 -205t-109.5 -129.5t-169.5 -44.5t-169.5 44zM545.5 138q53.5 75 53.5 230q0 158 -54.5 234.5t-161.5 76.5q-109 0 -163.5 -77t-54.5 -234 q0 -155 54.5 -230t164.5 -75q108 0 161.5 75zM514 912q1 -2 1 -6q0 -8 -11 -11l-229 -72q-2 -1 -6 -1q-7 0 -10 9l-8 22q-1 2 -1 5q0 8 6 9l231 96q1 1 4 1q6 0 8 -6z" />
<glyph unicode="&#xd4;" horiz-adv-x="764" d="M212.5 34q-71.5 44 -109.5 129t-38 205q0 121 38.5 207.5t110 131.5t169.5 45q97 0 168.5 -45t109.5 -131t38 -207q0 -120 -38 -205t-109.5 -129.5t-169.5 -44.5t-169.5 44zM545.5 138q53.5 75 53.5 230q0 158 -54.5 234.5t-161.5 76.5q-109 0 -163.5 -77t-54.5 -234 q0 -155 54.5 -230t164.5 -75q108 0 161.5 75zM394 899l-5.5 5.5t-5.5 3.5q-3 0 -12 -9l-58 -50q-5 -4 -8.5 -5t-9.5 -1h-54q-7 0 -7 4q0 3 5 8l102 91q11 11 25 11h39q7 0 11.5 -3t8.5 -6l101 -93q6 -6 6 -9t-7 -3h-59q-11 0 -18 6z" />
<glyph unicode="&#xd5;" horiz-adv-x="764" d="M212.5 34q-71.5 44 -109.5 129t-38 205q0 121 38.5 207.5t110 131.5t169.5 45q97 0 168.5 -45t109.5 -131t38 -207q0 -120 -38 -205t-109.5 -129.5t-169.5 -44.5t-169.5 44zM545.5 138q53.5 75 53.5 230q0 158 -54.5 234.5t-161.5 76.5q-109 0 -163.5 -77t-54.5 -234 q0 -155 54.5 -230t164.5 -75q108 0 161.5 75zM490.5 873q-17.5 -6 -42.5 -6q-29 0 -69 14q-36 12 -58 12q-17 0 -28 -4.5t-20 -9.5t-12 -7q-5 -3 -7 -3q-4 0 -7 8l-10 27q-1 2 -1 6t5 8q20 15 36 22.5t40 7.5q17 0 32 -3.5t37 -10.5q16 -5 32 -9.5t31 -4.5q17 0 29 5t28 15 q5 3 8 3q5 0 8 -8l10 -31q1 -2 1 -5q0 -5 -9 -10q-16 -10 -33.5 -16z" />
<glyph unicode="&#xd6;" horiz-adv-x="764" d="M212.5 34q-71.5 44 -109.5 129t-38 205q0 121 38.5 207.5t110 131.5t169.5 45q97 0 168.5 -45t109.5 -131t38 -207q0 -120 -38 -205t-109.5 -129.5t-169.5 -44.5t-169.5 44zM545.5 138q53.5 75 53.5 230q0 158 -54.5 234.5t-161.5 76.5q-109 0 -163.5 -77t-54.5 -234 q0 -155 54.5 -230t164.5 -75q108 0 161.5 75zM351 859q0 -9 -3.5 -12t-12.5 -3h-53q-8 0 -11 2.5t-3 10.5v84q0 7 2.5 10t8.5 3h61q6 0 8.5 -2.5t2.5 -9.5v-83zM498 859q0 -9 -3.5 -12t-13.5 -3h-52q-9 0 -12 2.5t-3 10.5v84q0 13 11 13h62q6 0 8.5 -2.5t2.5 -9.5v-83z" />
<glyph unicode="&#xd7;" horiz-adv-x="540" d="M472 205l-31 -31q-4 -4 -9 -4q-6 0 -12 6l-150 150l-154 -154q-6 -7 -14 -1l-30 31q-5 5 -5 9q0 6 6 12l150 150l-153 152q-4 5 -4 9q0 5 4 9l30 30q8 7 15 2l155 -155l152 153q7 5 9 5q4 0 9 -5l31 -31q8 -7 1 -14l-155 -155l155 -155q7 -6 0 -13z" />
<glyph unicode="&#xd8;" horiz-adv-x="729" d="M713 708q0 -3 -3 -8l-83 -92q55 -93 55 -239q0 -120 -38 -205t-109.5 -129.5t-169.5 -44.5q-138 0 -221 86l-68 -76q-8 -8 -13 -8t-13 6l-23 23q-8 8 -8 13q0 2 4 8l80 88q-55 93 -55 238q0 121 38.5 207.5t110 131.5t169.5 45q137 0 220 -89l72 81q11 11 18 3l33 -31 q4 -4 4 -8zM177 207l349 394q-52 77 -160 77q-109 0 -162.5 -76.5t-53.5 -233.5q0 -98 27 -161zM552 531l-348 -392q53 -75 162 -75q108 0 160.5 74t52.5 230q0 103 -27 163z" />
<glyph unicode="&#xd9;" horiz-adv-x="709" d="M554.5 52.5q-67.5 -62.5 -199.5 -62.5q-139 0 -203 67t-64 207v464q0 14 11 14h72q12 0 12 -13v-486q0 -91 44.5 -135t133.5 -44t134.5 44.5t45.5 137.5v483q0 13 11 13h59q11 0 11 -12v-483q0 -132 -67.5 -194.5zM237 963.5q3 1.5 7 -0.5l232 -96q8 -4 4 -14l-8 -22 q-2 -7 -5.5 -8.5t-10.5 0.5l-228 72q-16 4 -11 17l16 46q1 4 4 5.5z" />
<glyph unicode="&#xda;" horiz-adv-x="709" d="M554.5 52.5q-67.5 -62.5 -199.5 -62.5q-139 0 -203 67t-64 207v464q0 14 11 14h72q12 0 12 -13v-486q0 -91 44.5 -135t133.5 -44t134.5 44.5t45.5 137.5v483q0 13 11 13h59q11 0 11 -12v-483q0 -132 -67.5 -194.5zM493 912q1 -2 1 -6q0 -8 -11 -11l-229 -72q-2 -1 -6 -1 q-7 0 -10 9l-8 22q-1 2 -1 5q0 8 6 9l231 96q1 1 4 1q6 0 8 -6z" />
<glyph unicode="&#xdb;" horiz-adv-x="709" d="M554.5 52.5q-67.5 -62.5 -199.5 -62.5q-139 0 -203 67t-64 207v464q0 14 11 14h72q12 0 12 -13v-486q0 -91 44.5 -135t133.5 -44t134.5 44.5t45.5 137.5v483q0 13 11 13h59q11 0 11 -12v-483q0 -132 -67.5 -194.5zM373 899l-5.5 5.5t-5.5 3.5q-3 0 -12 -9l-58 -50 q-5 -4 -8.5 -5t-9.5 -1h-54q-7 0 -7 4q0 3 5 8l102 91q11 11 25 11h39q7 0 11.5 -3t8.5 -6l101 -93q6 -6 6 -9t-7 -3h-59q-11 0 -18 6z" />
<glyph unicode="&#xdc;" horiz-adv-x="709" d="M554.5 52.5q-67.5 -62.5 -199.5 -62.5q-139 0 -203 67t-64 207v464q0 14 11 14h72q12 0 12 -13v-486q0 -91 44.5 -135t133.5 -44t134.5 44.5t45.5 137.5v483q0 13 11 13h59q11 0 11 -12v-483q0 -132 -67.5 -194.5zM330 859q0 -9 -3.5 -12t-12.5 -3h-53q-8 0 -11 2.5 t-3 10.5v84q0 7 2.5 10t8.5 3h61q6 0 8.5 -2.5t2.5 -9.5v-83zM477 859q0 -9 -3.5 -12t-13.5 -3h-52q-9 0 -12 2.5t-3 10.5v84q0 13 11 13h62q6 0 8.5 -2.5t2.5 -9.5v-83z" />
<glyph unicode="&#xdd;" horiz-adv-x="675" d="M633.5 738q2.5 -4 -1.5 -10l-238 -398q-4 -6 -5 -12.5t-1 -20.5v-280q0 -9 -4.5 -13t-14.5 -4h-60q-16 0 -16 15v278q0 9 -1.5 14t-6.5 13l-241 406q-3 5 -3 8q0 8 14 8h72q9 0 12.5 -2.5t8.5 -9.5l186 -320q6 -12 11 -12q4 0 11 10l185 322q4 7 8 9.5t13 2.5h62 q7 0 9.5 -4zM469 912q1 -2 1 -6q0 -8 -11 -11l-229 -72q-2 -1 -6 -1q-7 0 -10 9l-8 22q-1 2 -1 5q0 8 6 9l231 96q1 1 4 1q6 0 8 -6z" />
<glyph unicode="&#xde;" horiz-adv-x="693" d="M568.5 224.5q-71.5 -53.5 -192.5 -53.5h-174q-9 0 -9 -10v-146q0 -15 -15 -15h-68q-13 0 -13 13v715q0 14 12 14h72q12 0 12 -13v-135q0 -7 7 -7h164q125 0 200.5 -51t75.5 -151q0 -107 -71.5 -160.5zM360 514h-154q-13 0 -13 -12v-245q0 -13 9 -13h164q83 0 129 35 t46 107q0 128 -181 128z" />
<glyph unicode="&#xdf;" horiz-adv-x="608" d="M452 702q43 -40 43 -101q0 -37 -15 -61.5t-39.5 -40.5t-66.5 -36q-37 -20 -49 -30.5t-12 -28.5q0 -19 11.5 -27.5t47.5 -19.5q59 -22 95.5 -40t65.5 -56t29 -97q0 -83 -56 -128.5t-143 -45.5q-36 0 -71.5 8t-59.5 22q-9 6 -5 14l23 42q5 6 13 1q24 -13 44.5 -19.5 t48.5 -6.5q58 0 92.5 27.5t34.5 77.5q0 35 -17 57.5t-43 35t-70 27.5q-34 12 -56.5 24t-37.5 33.5t-15 55.5q0 37 20.5 62t67.5 51q7 4 32 19.5t38 35t13 43.5q0 37 -27 58.5t-76 21.5q-62 0 -98 -37.5t-36 -107.5v-522v-3q0 -10 -10 -10h-63q-10 0 -10 11v437q0 10 -8 10 h-52q-11 0 -11 10v42q0 5 3 8t8 3h51q5 0 6.5 2.5t1.5 7.5q1 95 60 153t166 58q89 0 132 -40z" />
<glyph unicode="&#xe0;" horiz-adv-x="548" d="M207 -10q-78 0 -122.5 39.5t-44.5 105.5q0 80 67.5 126t195.5 54l78 6q17 2 17 15v27q0 54 -33.5 85.5t-90.5 31.5q-88 0 -144 -80q-3 -5 -6 -6.5t-8 0.5l-54 18q-5 2 -5 7q0 3 3 9q30 53 85.5 82.5t131.5 29.5q98 0 150 -45.5t52 -125.5v-354q0 -9 -3 -12t-11 -3h-50 q-12 0 -14 16l-2 46q-1 7 -5 7t-9 -5q-77 -74 -178 -74zM383 270l-65 -6q-93 -6 -143.5 -36t-50.5 -83q0 -43 30.5 -68t81.5 -25q31 0 61 11t53 30q23 18 35.5 38.5t12.5 39.5v83q0 16 -15 16zM150 751.5q3 1.5 7 -0.5l232 -96q8 -4 4 -14l-8 -22q-2 -7 -5.5 -8.5t-10.5 0.5 l-228 72q-16 4 -11 17l16 46q1 4 4 5.5z" />
<glyph unicode="&#xe1;" horiz-adv-x="548" d="M207 -10q-78 0 -122.5 39.5t-44.5 105.5q0 80 67.5 126t195.5 54l78 6q17 2 17 15v27q0 54 -33.5 85.5t-90.5 31.5q-88 0 -144 -80q-3 -5 -6 -6.5t-8 0.5l-54 18q-5 2 -5 7q0 3 3 9q30 53 85.5 82.5t131.5 29.5q98 0 150 -45.5t52 -125.5v-354q0 -9 -3 -12t-11 -3h-50 q-12 0 -14 16l-2 46q-1 7 -5 7t-9 -5q-77 -74 -178 -74zM383 270l-65 -6q-93 -6 -143.5 -36t-50.5 -83q0 -43 30.5 -68t81.5 -25q31 0 61 11t53 30q23 18 35.5 38.5t12.5 39.5v83q0 16 -15 16zM406 700q1 -2 1 -6q0 -8 -11 -11l-229 -72q-2 -1 -6 -1q-7 0 -10 9l-8 22 q-1 2 -1 5q0 8 6 9l231 96q1 1 4 1q6 0 8 -6z" />
<glyph unicode="&#xe2;" horiz-adv-x="548" d="M207 -10q-78 0 -122.5 39.5t-44.5 105.5q0 80 67.5 126t195.5 54l78 6q17 2 17 15v27q0 54 -33.5 85.5t-90.5 31.5q-88 0 -144 -80q-3 -5 -6 -6.5t-8 0.5l-54 18q-5 2 -5 7q0 3 3 9q30 53 85.5 82.5t131.5 29.5q98 0 150 -45.5t52 -125.5v-354q0 -9 -3 -12t-11 -3h-50 q-12 0 -14 16l-2 46q-1 7 -5 7t-9 -5q-77 -74 -178 -74zM383 270l-65 -6q-93 -6 -143.5 -36t-50.5 -83q0 -43 30.5 -68t81.5 -25q31 0 61 11t53 30q23 18 35.5 38.5t12.5 39.5v83q0 16 -15 16zM286 687l-5.5 5.5t-5.5 3.5q-3 0 -12 -9l-58 -50q-5 -4 -8.5 -5t-9.5 -1h-54 q-7 0 -7 4q0 3 5 8l102 91q11 11 25 11h39q7 0 11.5 -3t8.5 -6l101 -93q6 -6 6 -9t-7 -3h-59q-11 0 -18 6z" />
<glyph unicode="&#xe3;" horiz-adv-x="548" d="M207 -10q-78 0 -122.5 39.5t-44.5 105.5q0 80 67.5 126t195.5 54l78 6q17 2 17 15v27q0 54 -33.5 85.5t-90.5 31.5q-88 0 -144 -80q-3 -5 -6 -6.5t-8 0.5l-54 18q-5 2 -5 7q0 3 3 9q30 53 85.5 82.5t131.5 29.5q98 0 150 -45.5t52 -125.5v-354q0 -9 -3 -12t-11 -3h-50 q-12 0 -14 16l-2 46q-1 7 -5 7t-9 -5q-77 -74 -178 -74zM383 270l-65 -6q-93 -6 -143.5 -36t-50.5 -83q0 -43 30.5 -68t81.5 -25q31 0 61 11t53 30q23 18 35.5 38.5t12.5 39.5v83q0 16 -15 16zM382.5 661q-17.5 -6 -42.5 -6q-29 0 -69 14q-36 12 -58 12q-17 0 -28 -4.5 t-20 -9.5t-12 -7q-5 -3 -7 -3q-4 0 -7 8l-10 27q-1 2 -1 6t5 8q20 15 36 22.5t40 7.5q17 0 32 -3.5t37 -10.5q16 -5 32 -9.5t31 -4.5q17 0 29 5t28 15q5 3 8 3q5 0 8 -8l10 -31q1 -2 1 -5q0 -5 -9 -10q-16 -10 -33.5 -16z" />
<glyph unicode="&#xe4;" horiz-adv-x="548" d="M207 -10q-78 0 -122.5 39.5t-44.5 105.5q0 80 67.5 126t195.5 54l78 6q17 2 17 15v27q0 54 -33.5 85.5t-90.5 31.5q-88 0 -144 -80q-3 -5 -6 -6.5t-8 0.5l-54 18q-5 2 -5 7q0 3 3 9q30 53 85.5 82.5t131.5 29.5q98 0 150 -45.5t52 -125.5v-354q0 -9 -3 -12t-11 -3h-50 q-12 0 -14 16l-2 46q-1 7 -5 7t-9 -5q-77 -74 -178 -74zM383 270l-65 -6q-93 -6 -143.5 -36t-50.5 -83q0 -43 30.5 -68t81.5 -25q31 0 61 11t53 30q23 18 35.5 38.5t12.5 39.5v83q0 16 -15 16zM243 647q0 -9 -3.5 -12t-12.5 -3h-53q-8 0 -11 2.5t-3 10.5v84q0 7 2.5 10 t8.5 3h61q6 0 8.5 -2.5t2.5 -9.5v-83zM390 647q0 -9 -3.5 -12t-13.5 -3h-52q-9 0 -12 2.5t-3 10.5v84q0 13 11 13h62q6 0 8.5 -2.5t2.5 -9.5v-83z" />
<glyph unicode="&#xe5;" horiz-adv-x="548" d="M207 -10q-78 0 -122.5 39.5t-44.5 105.5q0 80 67.5 126t195.5 54l78 6q17 2 17 15v27q0 54 -33.5 85.5t-90.5 31.5q-88 0 -144 -80q-3 -5 -6 -6.5t-8 0.5l-54 18q-5 2 -5 7q0 3 3 9q30 53 85.5 82.5t131.5 29.5q98 0 150 -45.5t52 -125.5v-354q0 -9 -3 -12t-11 -3h-50 q-12 0 -14 16l-2 46q-1 7 -5 7t-9 -5q-77 -74 -178 -74zM383 270l-65 -6q-93 -6 -143.5 -36t-50.5 -83q0 -43 30.5 -68t81.5 -25q31 0 61 11t53 30q23 18 35.5 38.5t12.5 39.5v83q0 16 -15 16zM349 623q-30 -30 -74 -30t-74.5 30.5t-30.5 76.5q0 42 30.5 71.5t74.5 29.5 q43 0 73.5 -30t30.5 -73q0 -45 -30 -75zM313 737.5q-16 15.5 -39 15.5t-40 -16t-17 -40q0 -22 17 -39t40 -17t39 16.5t16 39.5q0 25 -16 40.5z" />
<glyph unicode="&#xe6;" horiz-adv-x="926" d="M482.5 242q-3.5 -4 -3.5 -18q0 -42 23 -81.5t63 -64t87 -24.5q57 0 91.5 22t66.5 61q4 4 6 4.5t7 -1.5l41 -21q8 -5 2 -14q-33 -55 -90.5 -85t-132.5 -30q-74 0 -122 31t-84 77q-3 5 -6 0q-42 -49 -92.5 -78.5t-130.5 -29.5t-124 39.5t-44 108.5q0 76 63 121.5t189 54.5 l88 7q18 2 18 15v27q0 55 -33.5 86t-94.5 31q-84 0 -140 -80q-4 -6 -7 -7t-9 1l-52 18q-3 2 -3.5 7t1.5 9q65 112 217 112q72 0 115.5 -24t62.5 -73q31 48 79 72.5t110 24.5q72 0 126.5 -32t84.5 -93t30 -146q0 -12 -3.5 -17t-14.5 -5l-370 -1q-11 0 -14.5 -4zM562 458.5 q-37 -21.5 -59 -62t-22 -93.5l303 -1q11 0 14 3t3 12q0 43 -20 80.5t-55.5 60t-80.5 22.5q-46 0 -83 -21.5zM394.5 263.5q-3.5 3.5 -12.5 3.5l-73 -6q-90 -7 -137.5 -37t-47.5 -81q0 -42 28 -67t77 -25q45 0 84 16.5t62 44t23 60.5v80q0 8 -3.5 11.5z" />
<glyph unicode="&#xe7;" horiz-adv-x="542" d="M511 121q-30 -54 -78.5 -89.5t-115.5 -40.5l-17 -43q-1 -2 0 -3.5t4 -1.5q44 -3 64 -24t20 -50q0 -37 -31.5 -58t-77.5 -21q-50 0 -88 22q-5 4 -4 9l11 26q3 5 9 2q28 -19 62 -19q57 0 57 38q0 22 -19.5 33t-61.5 13q-5 0 -6 1t0 5l31 71q-66 6 -117 42t-79 95.5 t-28 134.5q0 80 32 143.5t89.5 98.5t129.5 35q73 0 124.5 -34t82.5 -90l2 -8q0 -6 -7 -7l-55 -13l-3 -1q-5 0 -10 8q-32 43 -61.5 63t-67.5 20q-78 0 -124 -57.5t-46 -155.5q0 -99 46.5 -156t125.5 -57q47 0 82.5 23t64.5 71q3 5 6 5.5t7 -1.5l43 -16q7 -3 4 -13z" />
<glyph unicode="&#xe8;" horiz-adv-x="581" d="M156.5 143q23.5 -41 63.5 -65t88 -24q100 0 156 83q4 4 7 4.5t7 -1.5l42 -21q8 -5 2 -14q-39 -60 -93 -87.5t-129 -27.5q-73 0 -131 34t-90.5 95.5t-32.5 140.5q0 85 33 148.5t90.5 97.5t129.5 34t126.5 -32t84.5 -93.5t30 -145.5v-4q0 -9 -3 -13.5t-12 -4.5h-383 q-9 0 -9 -15q0 -48 23.5 -89zM439 302q11 0 14 2.5t3 11.5q0 44 -18.5 81.5t-54 60t-82.5 22.5q-51 0 -89 -25.5t-58 -66t-19 -86.5h304zM173 751.5q3 1.5 7 -0.5l232 -96q8 -4 4 -14l-8 -22q-2 -7 -5.5 -8.5t-10.5 0.5l-228 72q-16 4 -11 17l16 46q1 4 4 5.5z" />
<glyph unicode="&#xe9;" horiz-adv-x="581" d="M156.5 143q23.5 -41 63.5 -65t88 -24q100 0 156 83q4 4 7 4.5t7 -1.5l42 -21q8 -5 2 -14q-39 -60 -93 -87.5t-129 -27.5q-73 0 -131 34t-90.5 95.5t-32.5 140.5q0 85 33 148.5t90.5 97.5t129.5 34t126.5 -32t84.5 -93.5t30 -145.5v-4q0 -9 -3 -13.5t-12 -4.5h-383 q-9 0 -9 -15q0 -48 23.5 -89zM439 302q11 0 14 2.5t3 11.5q0 44 -18.5 81.5t-54 60t-82.5 22.5q-51 0 -89 -25.5t-58 -66t-19 -86.5h304zM429 700q1 -2 1 -6q0 -8 -11 -11l-229 -72q-2 -1 -6 -1q-7 0 -10 9l-8 22q-1 2 -1 5q0 8 6 9l231 96q1 1 4 1q6 0 8 -6z" />
<glyph unicode="&#xea;" horiz-adv-x="581" d="M156.5 143q23.5 -41 63.5 -65t88 -24q100 0 156 83q4 4 7 4.5t7 -1.5l42 -21q8 -5 2 -14q-39 -60 -93 -87.5t-129 -27.5q-73 0 -131 34t-90.5 95.5t-32.5 140.5q0 85 33 148.5t90.5 97.5t129.5 34t126.5 -32t84.5 -93.5t30 -145.5v-4q0 -9 -3 -13.5t-12 -4.5h-383 q-9 0 -9 -15q0 -48 23.5 -89zM439 302q11 0 14 2.5t3 11.5q0 44 -18.5 81.5t-54 60t-82.5 22.5q-51 0 -89 -25.5t-58 -66t-19 -86.5h304zM309 687l-5.5 5.5t-5.5 3.5q-3 0 -12 -9l-58 -50q-5 -4 -8.5 -5t-9.5 -1h-54q-7 0 -7 4q0 3 5 8l102 91q11 11 25 11h39q7 0 11.5 -3 t8.5 -6l101 -93q6 -6 6 -9t-7 -3h-59q-11 0 -18 6z" />
<glyph unicode="&#xeb;" horiz-adv-x="581" d="M156.5 143q23.5 -41 63.5 -65t88 -24q100 0 156 83q4 4 7 4.5t7 -1.5l42 -21q8 -5 2 -14q-39 -60 -93 -87.5t-129 -27.5q-73 0 -131 34t-90.5 95.5t-32.5 140.5q0 85 33 148.5t90.5 97.5t129.5 34t126.5 -32t84.5 -93.5t30 -145.5v-4q0 -9 -3 -13.5t-12 -4.5h-383 q-9 0 -9 -15q0 -48 23.5 -89zM439 302q11 0 14 2.5t3 11.5q0 44 -18.5 81.5t-54 60t-82.5 22.5q-51 0 -89 -25.5t-58 -66t-19 -86.5h304zM266 647q0 -9 -3.5 -12t-12.5 -3h-53q-8 0 -11 2.5t-3 10.5v84q0 7 2.5 10t8.5 3h61q6 0 8.5 -2.5t2.5 -9.5v-83zM413 647 q0 -9 -3.5 -12t-13.5 -3h-52q-9 0 -12 2.5t-3 10.5v84q0 13 11 13h62q6 0 8.5 -2.5t2.5 -9.5v-83z" />
<glyph unicode="&#xec;" horiz-adv-x="239" d="M161 17q0 -10 -4 -13.5t-14 -3.5h-51q-9 0 -12 3t-3 11v502q0 14 12 14h61q11 0 11 -13v-500zM-5 751.5q3 1.5 7 -0.5l232 -96q8 -4 4 -14l-8 -22q-2 -7 -5.5 -8.5t-10.5 0.5l-228 72q-16 4 -11 17l16 46q1 4 4 5.5z" />
<glyph unicode="&#xed;" horiz-adv-x="239" d="M161 17q0 -10 -4 -13.5t-14 -3.5h-51q-9 0 -12 3t-3 11v502q0 14 12 14h61q11 0 11 -13v-500zM251 700q1 -2 1 -6q0 -8 -11 -11l-229 -72q-2 -1 -6 -1q-7 0 -10 9l-8 22q-1 2 -1 5q0 8 6 9l231 96q1 1 4 1q6 0 8 -6z" />
<glyph unicode="&#xee;" horiz-adv-x="239" d="M161 17q0 -10 -4 -13.5t-14 -3.5h-51q-9 0 -12 3t-3 11v502q0 14 12 14h61q11 0 11 -13v-500zM131 687l-5.5 5.5t-5.5 3.5q-3 0 -12 -9l-58 -50q-5 -4 -8.5 -5t-9.5 -1h-54q-7 0 -7 4q0 3 5 8l102 91q11 11 25 11h39q7 0 11.5 -3t8.5 -6l101 -93q6 -6 6 -9t-7 -3h-59 q-11 0 -18 6z" />
<glyph unicode="&#xef;" horiz-adv-x="239" d="M161 17q0 -10 -4 -13.5t-14 -3.5h-51q-9 0 -12 3t-3 11v502q0 14 12 14h61q11 0 11 -13v-500zM88 647q0 -9 -3.5 -12t-12.5 -3h-53q-8 0 -11 2.5t-3 10.5v84q0 7 2.5 10t8.5 3h61q6 0 8.5 -2.5t2.5 -9.5v-83zM235 647q0 -9 -3.5 -12t-13.5 -3h-52q-9 0 -12 2.5t-3 10.5 v84q0 13 11 13h62q6 0 8.5 -2.5t2.5 -9.5v-83z" />
<glyph unicode="&#xf0;" d="M521 120q-31 -62 -88.5 -96t-134.5 -34q-74 0 -131.5 33.5t-89 93t-31.5 135.5q0 77 32 138t88.5 95.5t126.5 34.5q77 0 126 -49q-44 94 -142 161l-148 -84q-2 -1 -6 -1q-6 0 -10 7l-11 17q-3 5 -3 7q0 4 5 7l132 73q-48 27 -105 49q-4 2 -4.5 5.5t3.5 6.5l36 28 q2 1 4.5 2.5t5.5 1.5q5 0 9 -2q73 -26 117 -53l96 54q1 1 5 1q6 0 7 -3l14 -26q4 -6 -2 -10l-78 -43q208 -142 208 -407q0 -80 -31 -142zM386.5 79q37.5 26 58.5 72t21 104t-21 104.5t-59 72.5t-86 26t-86.5 -26.5t-60 -72.5t-21.5 -104t21.5 -104t60 -72t87.5 -26 q48 0 85.5 26z" />
<glyph unicode="&#xf1;" horiz-adv-x="584" d="M77 13v504q0 13 11 13h60q11 0 11 -11v-58q0 -11 9 -3q56 44 95.5 63t88.5 19q76 0 118.5 -41t42.5 -110v-373q0 -16 -15 -16h-56q-13 0 -13 13v357q0 50 -25.5 77t-78.5 27q-42 0 -77.5 -18.5t-86.5 -62.5v-378q0 -8 -3.5 -11.5t-11.5 -3.5h-55q-14 0 -14 13zM410.5 661 q-17.5 -6 -42.5 -6q-29 0 -69 14q-36 12 -58 12q-17 0 -28 -4.5t-20 -9.5t-12 -7q-5 -3 -7 -3q-4 0 -7 8l-10 27q-1 2 -1 6t5 8q20 15 36 22.5t40 7.5q17 0 32 -3.5t37 -10.5q16 -5 32 -9.5t31 -4.5q17 0 29 5t28 15q5 3 8 3q5 0 8 -8l10 -31q1 -2 1 -5q0 -5 -9 -10 q-16 -10 -33.5 -16z" />
<glyph unicode="&#xf2;" d="M166.5 24.5q-57.5 34.5 -89 96.5t-31.5 141q0 81 32.5 144t90 98.5t131.5 35.5t131.5 -35.5t89 -98.5t31.5 -143q0 -79 -32 -141t-89.5 -97t-131.5 -35q-75 0 -132.5 34.5zM422.5 109.5q43.5 56.5 43.5 155.5q0 98 -44.5 155.5t-121.5 57.5q-78 0 -123 -57.5t-45 -155.5 t45 -155t124 -57q78 0 121.5 56.5zM176 751.5q3 1.5 7 -0.5l232 -96q8 -4 4 -14l-8 -22q-2 -7 -5.5 -8.5t-10.5 0.5l-228 72q-16 4 -11 17l16 46q1 4 4 5.5z" />
<glyph unicode="&#xf3;" d="M166.5 24.5q-57.5 34.5 -89 96.5t-31.5 141q0 81 32.5 144t90 98.5t131.5 35.5t131.5 -35.5t89 -98.5t31.5 -143q0 -79 -32 -141t-89.5 -97t-131.5 -35q-75 0 -132.5 34.5zM422.5 109.5q43.5 56.5 43.5 155.5q0 98 -44.5 155.5t-121.5 57.5q-78 0 -123 -57.5t-45 -155.5 t45 -155t124 -57q78 0 121.5 56.5zM432 700q1 -2 1 -6q0 -8 -11 -11l-229 -72q-2 -1 -6 -1q-7 0 -10 9l-8 22q-1 2 -1 5q0 8 6 9l231 96q1 1 4 1q6 0 8 -6z" />
<glyph unicode="&#xf4;" d="M166.5 24.5q-57.5 34.5 -89 96.5t-31.5 141q0 81 32.5 144t90 98.5t131.5 35.5t131.5 -35.5t89 -98.5t31.5 -143q0 -79 -32 -141t-89.5 -97t-131.5 -35q-75 0 -132.5 34.5zM422.5 109.5q43.5 56.5 43.5 155.5q0 98 -44.5 155.5t-121.5 57.5q-78 0 -123 -57.5t-45 -155.5 t45 -155t124 -57q78 0 121.5 56.5zM312 687l-5.5 5.5t-5.5 3.5q-3 0 -12 -9l-58 -50q-5 -4 -8.5 -5t-9.5 -1h-54q-7 0 -7 4q0 3 5 8l102 91q11 11 25 11h39q7 0 11.5 -3t8.5 -6l101 -93q6 -6 6 -9t-7 -3h-59q-11 0 -18 6z" />
<glyph unicode="&#xf5;" d="M166.5 24.5q-57.5 34.5 -89 96.5t-31.5 141q0 81 32.5 144t90 98.5t131.5 35.5t131.5 -35.5t89 -98.5t31.5 -143q0 -79 -32 -141t-89.5 -97t-131.5 -35q-75 0 -132.5 34.5zM422.5 109.5q43.5 56.5 43.5 155.5q0 98 -44.5 155.5t-121.5 57.5q-78 0 -123 -57.5t-45 -155.5 t45 -155t124 -57q78 0 121.5 56.5zM408.5 661q-17.5 -6 -42.5 -6q-29 0 -69 14q-36 12 -58 12q-17 0 -28 -4.5t-20 -9.5t-12 -7q-5 -3 -7 -3q-4 0 -7 8l-10 27q-1 2 -1 6t5 8q20 15 36 22.5t40 7.5q17 0 32 -3.5t37 -10.5q16 -5 32 -9.5t31 -4.5q17 0 29 5t28 15q5 3 8 3 q5 0 8 -8l10 -31q1 -2 1 -5q0 -5 -9 -10q-16 -10 -33.5 -16z" />
<glyph unicode="&#xf6;" d="M166.5 24.5q-57.5 34.5 -89 96.5t-31.5 141q0 81 32.5 144t90 98.5t131.5 35.5t131.5 -35.5t89 -98.5t31.5 -143q0 -79 -32 -141t-89.5 -97t-131.5 -35q-75 0 -132.5 34.5zM422.5 109.5q43.5 56.5 43.5 155.5q0 98 -44.5 155.5t-121.5 57.5q-78 0 -123 -57.5t-45 -155.5 t45 -155t124 -57q78 0 121.5 56.5zM269 647q0 -9 -3.5 -12t-12.5 -3h-53q-8 0 -11 2.5t-3 10.5v84q0 7 2.5 10t8.5 3h61q6 0 8.5 -2.5t2.5 -9.5v-83zM416 647q0 -9 -3.5 -12t-13.5 -3h-52q-9 0 -12 2.5t-3 10.5v84q0 13 11 13h62q6 0 8.5 -2.5t2.5 -9.5v-83z" />
<glyph unicode="&#xf7;" horiz-adv-x="558" d="M335 510q0 -8 -3.5 -11.5t-13.5 -3.5h-80q-8 0 -11 3t-3 11v82q0 12 9 12h93q5 0 7 -2.5t2 -8.5v-82zM496 353q0 -13 -16 -13l-405 -1q-13 0 -13 12v43q0 12 9 12h415q10 0 10 -10v-43zM335 158q0 -8 -3.5 -11.5t-13.5 -3.5h-80q-8 0 -11 3t-3 10v82q0 12 9 12h93 q9 0 9 -10v-82z" />
<glyph unicode="&#xf8;" horiz-adv-x="583" d="M563 496q0 -5 -4 -9l-55 -54q47 -70 47 -170q0 -79 -32 -141t-89.5 -97t-131.5 -35q-54 0 -100 18.5t-79 52.5l-56 -55q-6 -6 -12 -6t-12 6l-13 14q-6 8 -6 13t6 11l61 59q-42 67 -42 159q0 81 32.5 144t90 98.5t131.5 35.5q51 0 94.5 -17t76.5 -49l50 49q6 6 11 6t9 -5 l19 -19q4 -4 4 -9zM148 162l270 262q-45 54 -119 54q-78 0 -123 -57.5t-45 -155.5q0 -58 17 -103zM445 377l-271 -264q45 -60 126 -60q78 0 121.5 56.5t43.5 155.5q0 64 -20 112z" />
<glyph unicode="&#xf9;" horiz-adv-x="579" d="M337.5 78.5q39.5 22.5 80.5 64.5v373q0 14 16 14h55q14 0 14 -14l-2 -503q0 -13 -11 -13h-58q-11 0 -11 11v59q0 12 -9 3q-54 -46 -96 -64.5t-86 -18.5q-70 0 -115 42t-45 111v372q0 15 15 15h56q13 0 13 -14v-351q0 -50 27.5 -79.5t75.5 -29.5q41 0 80.5 22.5z M152 751.5q3 1.5 7 -0.5l232 -96q8 -4 4 -14l-8 -22q-2 -7 -5.5 -8.5t-10.5 0.5l-228 72q-16 4 -11 17l16 46q1 4 4 5.5z" />
<glyph unicode="&#xfa;" horiz-adv-x="579" d="M337.5 78.5q39.5 22.5 80.5 64.5v373q0 14 16 14h55q14 0 14 -14l-2 -503q0 -13 -11 -13h-58q-11 0 -11 11v59q0 12 -9 3q-54 -46 -96 -64.5t-86 -18.5q-70 0 -115 42t-45 111v372q0 15 15 15h56q13 0 13 -14v-351q0 -50 27.5 -79.5t75.5 -29.5q41 0 80.5 22.5zM408 700 q1 -2 1 -6q0 -8 -11 -11l-229 -72q-2 -1 -6 -1q-7 0 -10 9l-8 22q-1 2 -1 5q0 8 6 9l231 96q1 1 4 1q6 0 8 -6z" />
<glyph unicode="&#xfb;" horiz-adv-x="579" d="M337.5 78.5q39.5 22.5 80.5 64.5v373q0 14 16 14h55q14 0 14 -14l-2 -503q0 -13 -11 -13h-58q-11 0 -11 11v59q0 12 -9 3q-54 -46 -96 -64.5t-86 -18.5q-70 0 -115 42t-45 111v372q0 15 15 15h56q13 0 13 -14v-351q0 -50 27.5 -79.5t75.5 -29.5q41 0 80.5 22.5zM288 687 l-5.5 5.5t-5.5 3.5q-3 0 -12 -9l-58 -50q-5 -4 -8.5 -5t-9.5 -1h-54q-7 0 -7 4q0 3 5 8l102 91q11 11 25 11h39q7 0 11.5 -3t8.5 -6l101 -93q6 -6 6 -9t-7 -3h-59q-11 0 -18 6z" />
<glyph unicode="&#xfc;" horiz-adv-x="579" d="M337.5 78.5q39.5 22.5 80.5 64.5v373q0 14 16 14h55q14 0 14 -14l-2 -503q0 -13 -11 -13h-58q-11 0 -11 11v59q0 12 -9 3q-54 -46 -96 -64.5t-86 -18.5q-70 0 -115 42t-45 111v372q0 15 15 15h56q13 0 13 -14v-351q0 -50 27.5 -79.5t75.5 -29.5q41 0 80.5 22.5zM245 647 q0 -9 -3.5 -12t-12.5 -3h-53q-8 0 -11 2.5t-3 10.5v84q0 7 2.5 10t8.5 3h61q6 0 8.5 -2.5t2.5 -9.5v-83zM392 647q0 -9 -3.5 -12t-13.5 -3h-52q-9 0 -12 2.5t-3 10.5v84q0 13 11 13h62q6 0 8.5 -2.5t2.5 -9.5v-83z" />
<glyph unicode="&#xfd;" horiz-adv-x="530" d="M58 -163q-13 2 -13 11v39q0 7 5.5 10t22.5 3h63q24 0 44 17.5t31.5 43.5t11.5 50q0 15 -4 24l-191 478q-1 2 -1 6q0 11 12 11h62q11 0 16 -11l149 -388q3 -9 8 -9q6 0 10 12l147 385q5 11 14 11h47q6 0 9 -4.5t1 -9.5l-220 -563q-27 -68 -67 -93t-109 -25q-35 0 -48 2z M406 700q1 -2 1 -6q0 -8 -11 -11l-229 -72q-2 -1 -6 -1q-7 0 -10 9l-8 22q-1 2 -1 5q0 8 6 9l231 96q1 1 4 1q6 0 8 -6z" />
<glyph unicode="&#xfe;" horiz-adv-x="595" d="M160 727v-254q0 -9 5 -9q3 0 8 5q21 21 37 34t47 25t73 12q63 0 112.5 -30t78 -90t28.5 -147q0 -88 -28.5 -152t-80.5 -97.5t-121 -33.5q-83 0 -142 50q-7 7 -11 7q-5 0 -5 -13v-186q0 -13 -11 -13h-62q-11 0 -11 13v878q0 8 3.5 12t12.5 4h53q14 0 14 -15zM225.5 67.5 q32.5 -16.5 71.5 -16.5q75 0 120.5 57t45.5 164q0 104 -45 155.5t-116 51.5q-40 0 -72 -17.5t-50.5 -44.5t-18.5 -53v-247q32 -33 64.5 -49.5z" />
<glyph unicode="&#xff;" horiz-adv-x="530" d="M58 -163q-13 2 -13 11v39q0 7 5.5 10t22.5 3h63q24 0 44 17.5t31.5 43.5t11.5 50q0 15 -4 24l-191 478q-1 2 -1 6q0 11 12 11h62q11 0 16 -11l149 -388q3 -9 8 -9q6 0 10 12l147 385q5 11 14 11h47q6 0 9 -4.5t1 -9.5l-220 -563q-27 -68 -67 -93t-109 -25q-35 0 -48 2z M243 647q0 -9 -3.5 -12t-12.5 -3h-53q-8 0 -11 2.5t-3 10.5v84q0 7 2.5 10t8.5 3h61q6 0 8.5 -2.5t2.5 -9.5v-83zM390 647q0 -9 -3.5 -12t-13.5 -3h-52q-9 0 -12 2.5t-3 10.5v84q0 13 11 13h62q6 0 8.5 -2.5t2.5 -9.5v-83z" />
<glyph unicode="&#x131;" horiz-adv-x="239" d="M161 17q0 -10 -4 -13.5t-14 -3.5h-51q-9 0 -12 3t-3 11v502q0 14 12 14h61q11 0 11 -13v-500z" />
<glyph unicode="&#x13f;" horiz-adv-x="616" d="M109 742h72q12 0 12 -13v-645q0 -6 2 -8t8 -2h346q6 0 9 -2t3 -8v-53q0 -11 -12 -11h-438q-8 0 -11 3t-3 11v714q0 14 12 14zM518 364q0 -8 -3.5 -11.5t-13.5 -3.5h-79q-8 0 -11 3t-3 11v81q0 12 9 12h92q5 0 7 -2.5t2 -8.5v-81z" />
<glyph unicode="&#x140;" horiz-adv-x="335" d="M162 17q0 -10 -4 -13.5t-14 -3.5h-52q-9 0 -12 3t-3 11l1 714q0 14 12 14h60q12 0 12 -13v-712zM342 257q0 -8 -3.5 -11.5t-13.5 -3.5h-79q-8 0 -11 3t-3 11v81q0 12 9 12h92q5 0 7 -2.5t2 -8.5v-81z" />
<glyph unicode="&#x152;" horiz-adv-x="1124" d="M1074.5 72q2.5 -2 2.5 -8v-53q0 -11 -11 -11h-431q-6 0 -8.5 1.5t-3.5 5.5l-14 95q-34 -55 -91 -83.5t-132 -28.5q-152 0 -236.5 98.5t-84.5 279.5q0 121 39 207.5t112 131.5t174 45q73 0 128.5 -28.5t90.5 -84.5l12 96q1 7 12 7h421q10 0 10 -11v-51q0 -12 -13 -12h-342 q-7 0 -10 -2.5t-3 -9.5v-234q0 -11 11 -11h251q11 0 11 -11v-53q0 -9 -10 -9h-252q-11 0 -11 -11v-243q0 -6 2 -8t8 -2h360q6 0 8.5 -2zM544.5 138q52.5 75 52.5 230q0 158 -53.5 234.5t-160.5 76.5q-109 0 -163.5 -77t-54.5 -234q0 -155 54.5 -230t164.5 -75 q108 0 160.5 75z" />
<glyph unicode="&#x153;" horiz-adv-x="997" d="M166.5 24q-57.5 34 -89 95.5t-31.5 142.5q0 82 32.5 145t90 98t131.5 35q67 0 119 -30t82 -84q5 -6 8 -6q5 0 8 6q30 54 81.5 84t115.5 30q112 0 177.5 -73t65.5 -201q0 -19 -18 -19h-373q-15 0 -15 -18q0 -48 23.5 -88t63 -63t86.5 -23q101 0 157 82q3 4 6 4.5t8 -1.5 l42 -21q8 -6 1 -14q-39 -60 -92.5 -87.5t-128.5 -27.5q-65 0 -117 28t-84 80q-3 7 -7 7q-5 0 -11 -9q-31 -51 -82.5 -78.5t-116.5 -27.5q-75 0 -132.5 34zM633.5 457.5q-37.5 -22.5 -58.5 -63t-21 -91.5l302 -1q11 0 14 2.5t3 11.5q0 43 -19.5 81t-55 60.5t-81.5 22.5 t-83.5 -22.5zM422 109.5q44 56.5 44 155.5q0 98 -45 155.5t-121 57.5q-77 0 -122.5 -57.5t-45.5 -155.5t45.5 -155t123.5 -57q77 0 121 56.5z" />
<glyph unicode="&#x178;" horiz-adv-x="675" d="M633.5 738q2.5 -4 -1.5 -10l-238 -398q-4 -6 -5 -12.5t-1 -20.5v-280q0 -9 -4.5 -13t-14.5 -4h-60q-16 0 -16 15v278q0 9 -1.5 14t-6.5 13l-241 406q-3 5 -3 8q0 8 14 8h72q9 0 12.5 -2.5t8.5 -9.5l186 -320q6 -12 11 -12q4 0 11 10l185 322q4 7 8 9.5t13 2.5h62 q7 0 9.5 -4zM306 859q0 -9 -3.5 -12t-12.5 -3h-53q-8 0 -11 2.5t-3 10.5v84q0 7 2.5 10t8.5 3h61q6 0 8.5 -2.5t2.5 -9.5v-83zM453 859q0 -9 -3.5 -12t-13.5 -3h-52q-9 0 -12 2.5t-3 10.5v84q0 13 11 13h62q6 0 8.5 -2.5t2.5 -9.5v-83z" />
<glyph unicode="&#x237;" horiz-adv-x="239" d="M130.5 -136.5q-31.5 -33.5 -108.5 -33.5q-43 0 -54.5 2.5t-11.5 10.5v44q0 11 10 11l51 3q32 2 46.5 18.5t14.5 57.5v539q0 14 12 14h61q11 0 11 -13v-546q0 -74 -31.5 -107.5z" />
<glyph unicode="&#x2c6;" horiz-adv-x="319" d="M170 687l-5.5 5.5t-5.5 3.5q-3 0 -12 -9l-58 -50q-5 -4 -8.5 -5t-9.5 -1h-54q-7 0 -7 4q0 3 5 8l102 91q11 11 25 11h39q7 0 11.5 -3t8.5 -6l101 -93q6 -6 6 -9t-7 -3h-59q-11 0 -18 6z" />
<glyph unicode="&#x2dc;" horiz-adv-x="331" d="M272.5 661q-17.5 -6 -42.5 -6q-29 0 -69 14q-36 12 -58 12q-17 0 -28 -4.5t-20 -9.5t-12 -7q-5 -3 -7 -3q-4 0 -7 8l-10 27q-1 2 -1 6t5 8q20 15 36 22.5t40 7.5q17 0 32 -3.5t37 -10.5q16 -5 32 -9.5t31 -4.5q17 0 29 5t28 15q5 3 8 3q5 0 8 -8l10 -31q1 -2 1 -5 q0 -5 -9 -10q-16 -10 -33.5 -16z" />
<glyph unicode="&#x300;" horiz-adv-x="0" d="M-254 751.5q3 1.5 7 -0.5l232 -96q8 -4 4 -14l-8 -22q-2 -7 -5.5 -8.5t-10.5 0.5l-228 72q-16 4 -11 17l16 46q1 4 4 5.5z" />
<glyph unicode="&#x301;" horiz-adv-x="0" d="M-11 700q1 -2 1 -6q0 -8 -11 -11l-229 -72q-2 -1 -6 -1q-7 0 -10 9l-8 22q-1 2 -1 5q0 8 6 9l231 96q1 1 4 1q6 0 8 -6z" />
<glyph unicode="&#x302;" horiz-adv-x="0" d="M-149 687l-5.5 5.5t-5.5 3.5q-3 0 -12 -9l-58 -50q-5 -4 -8.5 -5t-9.5 -1h-54q-7 0 -7 4q0 3 5 8l102 91q11 11 25 11h39q7 0 11.5 -3t8.5 -6l101 -93q6 -6 6 -9t-7 -3h-59q-11 0 -18 6z" />
<glyph unicode="&#x303;" horiz-adv-x="0" d="M-58.5 661q-17.5 -6 -42.5 -6q-29 0 -69 14q-36 12 -58 12q-17 0 -28 -4.5t-20 -9.5t-12 -7q-5 -3 -7 -3q-4 0 -7 8l-10 27q-1 2 -1 6t5 8q20 15 36 22.5t40 7.5q17 0 32 -3.5t37 -10.5q16 -5 32 -9.5t31 -4.5q17 0 29 5t28 15q5 3 8 3q5 0 8 -8l10 -31q1 -2 1 -5 q0 -5 -9 -10q-16 -10 -33.5 -16z" />
<glyph unicode="&#x304;" horiz-adv-x="0" d="M-10 679q0 -13 -15 -13h-270q-6 0 -8.5 3t-2.5 9v39q0 5 2 8t6 3h280q4 0 6 -3t2 -7v-39z" />
<glyph unicode="&#x308;" horiz-adv-x="0" d="M-157 647q0 -9 -3.5 -12t-12.5 -3h-53q-8 0 -11 2.5t-3 10.5v84q0 7 2.5 10t8.5 3h61q6 0 8.5 -2.5t2.5 -9.5v-83zM-10 647q0 -9 -3.5 -12t-13.5 -3h-52q-9 0 -12 2.5t-3 10.5v84q0 13 11 13h62q6 0 8.5 -2.5t2.5 -9.5v-83z" />
<glyph unicode="&#x30a;" horiz-adv-x="0" d="M-40 620q-30 -30 -74 -30t-74.5 30.5t-30.5 76.5q0 42 30.5 71.5t74.5 29.5q43 0 73.5 -30t30.5 -73q0 -45 -30 -75zM-76 734.5q-16 15.5 -39 15.5t-40 -16t-17 -40q0 -22 17 -39t40 -17t39 16.5t16 39.5q0 25 -16 40.5z" />
<glyph unicode="&#x327;" horiz-adv-x="0" d="M-41.5 -189q-31.5 -21 -77.5 -21q-50 0 -88 22q-5 4 -4 9l11 26q3 5 9 2q28 -19 62 -19q57 0 57 38q0 22 -19.5 33t-61.5 13q-5 0 -6.5 1t0.5 5l37 85h47l-23 -57q-1 -2 0 -3.5t4 -1.5q44 -3 64 -24t20 -50q0 -37 -31.5 -58z" />
<glyph unicode="&#x2000;" horiz-adv-x="482" />
<glyph unicode="&#x2001;" horiz-adv-x="964" />
<glyph unicode="&#x2002;" horiz-adv-x="482" />
<glyph unicode="&#x2003;" horiz-adv-x="964" />
<glyph unicode="&#x2004;" horiz-adv-x="321" />
<glyph unicode="&#x2005;" horiz-adv-x="241" />
<glyph unicode="&#x2006;" horiz-adv-x="160" />
<glyph unicode="&#x2007;" horiz-adv-x="160" />
<glyph unicode="&#x2008;" horiz-adv-x="120" />
<glyph unicode="&#x2009;" horiz-adv-x="192" />
<glyph unicode="&#x200a;" horiz-adv-x="53" />
<glyph unicode="&#x2010;" horiz-adv-x="381" d="M319 245q0 -14 -17 -14h-227q-7 0 -10 2.5t-3 9.5v44q0 11 9 11l238 1q10 0 10 -10v-44z" />
<glyph unicode="&#x2011;" horiz-adv-x="381" d="M319 245q0 -14 -17 -14h-227q-7 0 -10 2.5t-3 9.5v44q0 11 9 11l238 1q10 0 10 -10v-44z" />
<glyph unicode="&#x2012;" horiz-adv-x="381" d="M319 245q0 -14 -17 -14h-227q-7 0 -10 2.5t-3 9.5v44q0 11 9 11l238 1q10 0 10 -10v-44z" />
<glyph unicode="&#x2013;" horiz-adv-x="558" d="M496 238q0 -14 -16 -14h-405q-7 0 -10 2.5t-3 9.5v44q0 11 9 11l415 1q10 0 10 -10v-44z" />
<glyph unicode="&#x2014;" horiz-adv-x="880" d="M818 238q0 -14 -16 -14h-727q-7 0 -10 2.5t-3 9.5v44q0 11 9 11l737 1q10 0 10 -10v-44z" />
<glyph unicode="&#x2018;" horiz-adv-x="222" d="M173.5 738.5q2.5 -3.5 0.5 -7.5l-44 -95q-3 -7 -3 -11q0 -6 8 -8h17q7 -1 9.5 -3.5t2.5 -8.5v-86q0 -10 -9 -10h-94q-9 0 -9 9v80q0 2 3 8l75 127q6 9 20 9h16q5 0 7.5 -3.5z" />
<glyph unicode="&#x2019;" horiz-adv-x="222" d="M48.5 512.5q-2.5 3.5 -0.5 7.5l44 95q3 8 3 11q0 6 -8 8h-17q-7 1 -9.5 3.5t-2.5 8.5v86q0 10 9 10h94q9 0 9 -9v-80q0 -2 -3 -8l-75 -127q-6 -9 -20 -9h-16q-5 0 -7.5 3.5z" />
<glyph unicode="&#x201a;" horiz-adv-x="222" d="M48.5 -121.5q-2.5 3.5 -0.5 7.5l44 95q3 7 3 11q0 7 -8 7l-17 1q-12 1 -12 11v87q0 10 9 10h94q4 0 6.5 -2.5t2.5 -6.5v-80q0 -3 -1 -5.5t-2 -3.5l-75 -126q-5 -9 -20 -9h-16q-5 0 -7.5 3.5z" />
<glyph unicode="&#x201c;" horiz-adv-x="398" d="M52 518v80q0 2 3 8l75 127q6 9 19 9h17q4 0 6.5 -3.5t1.5 -7.5l-45 -96q-2 -8 -2 -10q0 -7 8 -8h17q7 -1 9.5 -3.5t2.5 -8.5v-86q0 -10 -9 -10h-94q-9 0 -9 9zM229 518v80q0 4 2 8l75 127q6 9 20 9h16q5 0 7.5 -3.5t0.5 -7.5l-44 -96q-3 -6 -3 -11t8 -7h17q7 -1 9.5 -3.5 t2.5 -8.5v-86q0 -10 -9 -10h-93q-9 0 -9 9z" />
<glyph unicode="&#x201d;" horiz-adv-x="399" d="M48.5 512.5q-2.5 3.5 -0.5 7.5l44 95q3 8 3 11q0 6 -8 8h-17q-7 1 -9.5 3.5t-2.5 8.5v86q0 10 9 10h94q9 0 9 -9v-80q0 -2 -3 -8l-75 -127q-6 -9 -20 -9h-16q-5 0 -7.5 3.5zM225.5 512.5q-2.5 3.5 -1.5 7.5l45 95q2 8 2 11q0 7 -8 8h-16q-7 1 -10 3.5t-3 8.5v86 q0 10 9 10h94q9 0 9 -9v-80q0 -5 -3 -8l-75 -127q-6 -9 -19 -9h-17q-4 0 -6.5 3.5z" />
<glyph unicode="&#x201e;" horiz-adv-x="399" d="M224.5 -121.5q-2.5 3.5 -0.5 7.5l44 95q3 7 3 11q0 7 -8 7l-17 1q-12 1 -12 11v87q0 10 9 10h94q4 0 6.5 -2.5t2.5 -6.5v-80q0 -3 -1 -5.5t-2 -3.5l-75 -126q-5 -9 -20 -9h-16q-5 0 -7.5 3.5zM48.5 -121.5q-2.5 3.5 -0.5 7.5l44 95q3 7 3 11q0 7 -8 7l-17 1q-12 1 -12 11 v87q0 10 9 10h94q4 0 6.5 -2.5t2.5 -6.5v-80q0 -3 -1 -5.5t-2 -3.5l-75 -126q-5 -9 -20 -9h-16q-5 0 -7.5 3.5z" />
<glyph unicode="&#x2022;" horiz-adv-x="311" d="M88 310q-28 28 -28 67t28 67t67 28t67 -28t28 -67t-28 -67t-67 -28t-67 28z" />
<glyph unicode="&#x2026;" horiz-adv-x="749" d="M681 16q0 -9 -4 -12.5t-14 -3.5h-70q-8 0 -11.5 3t-3.5 11v86q0 13 11 13h82q10 0 10 -12v-85zM155 16q0 -9 -4 -12.5t-14 -3.5h-70q-8 0 -11.5 3t-3.5 11v86q0 13 11 13h82q10 0 10 -12v-85zM418 16q0 -9 -4 -12.5t-14 -3.5h-70q-8 0 -11.5 3t-3.5 11v86q0 13 11 13h82 q10 0 10 -12v-85z" />
<glyph unicode="&#x202f;" horiz-adv-x="192" />
<glyph unicode="&#x2039;" horiz-adv-x="267" d="M217 80q1 -1 1 -3q0 -4 -10 -4h-29q-8 0 -10 6l-126 167q-4 5 -4 12q0 5 3 9l127 177q3 4 5 5t5 1h31q4 0 6.5 -3t0.5 -7l-99 -175q-4 -10 0 -16z" />
<glyph unicode="&#x203a;" horiz-adv-x="268" d="M152 257q0 6 -2 8l-99 175q-1 1 -1 3q0 3 2.5 5t5.5 2h31q3 0 5 -1t5 -5l127 -177q3 -4 3 -9q0 -7 -4 -12l-126 -167q-2 -6 -10 -6h-29q-12 0 -9 7l99 169q2 3 2 8z" />
<glyph unicode="&#x2044;" horiz-adv-x="245" d="M-93 5q-4 -5 -8 -7t-11 -2h-26q-11 0 -11 9q0 6 3 10l484 728q3 5 7.5 6t8.5 1h33q13 0 6 -11z" />
<glyph unicode="&#x205f;" horiz-adv-x="241" />
<glyph unicode="&#x2070;" horiz-adv-x="484" d="M319.5 828q39.5 -28 62 -82.5t22.5 -130.5t-22.5 -129.5t-62 -81t-90.5 -27.5q-78 0 -126 62t-48 175q0 76 22.5 131t62.5 83t90 28t89.5 -28zM313.5 469.5q29.5 46.5 29.5 145.5q0 100 -30 147.5t-84 47.5q-53 0 -83 -48t-30 -147q0 -98 30 -145t84 -47t83.5 46.5z" />
<glyph unicode="&#x2074;" horiz-adv-x="483" d="M270.5 845.5q3.5 1.5 9.5 1.5h42q7 0 7 -8v-283q0 -6 5 -6h59q9 0 9 -6v-31q0 -8 -9 -8h-58q-6 0 -6 -6v-110q0 -9 -10 -9h-43q-8 0 -8 8v113q0 4 -5 4h-204q-10 0 -10 8v32q0 7 10 21l205 274q3 4 6.5 5.5zM261 550q6 0 6 5v210q0 7 -3 7q-2 0 -6 -5l-153 -208 q-3 -4 -2 -6.5t6 -2.5h152z" />
<glyph unicode="&#x2075;" horiz-adv-x="470" d="M367 847q7 0 8.5 -1.5t1.5 -7.5l-3 -35q-1 -4 -2 -5.5t-7 -1.5h-214q-7 0 -7 -7l-11 -136v-2q0 -8 7 -6q31 16 52.5 23.5t52.5 7.5q67 0 111.5 -36.5t44.5 -106.5q0 -74 -49.5 -116.5t-129.5 -42.5q-49 0 -91 16.5t-71 48.5q-3 4 -3 6.5t4 6.5l27 22q4 3 11 -2 q29 -28 53.5 -40.5t61.5 -12.5q60 0 94 31t34 81q0 48 -30 73.5t-77 25.5q-30 0 -54 -9.5t-54 -27.5q-3 -2 -5 -2.5t-3.5 0.5t-2.5 2l-31 18q-6 2 -6 6l1 8l17 213q1 6 3 7.5t11 1.5h256z" />
<glyph unicode="&#x2076;" horiz-adv-x="473" d="M319 839.5q31 -17.5 49 -43.5q4 -6 -2 -10l-36 -14q-3 -2 -5.5 -0.5t-3.5 4.5q-16 18 -33 27t-42 9q-66 0 -99 -46t-33 -122q0 -11 2.5 -13.5t9.5 1.5q34 16 58.5 24t57.5 8q71 0 112 -38.5t41 -98.5q0 -43 -21.5 -77t-58.5 -52.5t-82 -18.5q-83 0 -130.5 61.5 t-47.5 170.5q0 115 50.5 180.5t139.5 65.5q43 0 74 -17.5zM179 611.5q-31 -8.5 -51 -20.5q-7 -5 -9.5 -10.5t-2.5 -16.5q0 -32 13 -65t39.5 -54.5t64.5 -21.5q43 0 72.5 29.5t29.5 72.5q0 40 -27.5 67.5t-72.5 27.5q-25 0 -56 -8.5z" />
<glyph unicode="&#x2077;" horiz-adv-x="432" d="M374 847q5 0 7.5 -2.5t1.5 -5.5l-1 -22q0 -12 -8 -23q-60 -89 -110 -211.5t-60 -190.5q-1 -6 -3 -9t-7 -3h-49q-11 0 -8 11q20 81 64.5 185.5t113.5 211.5q3 4 2.5 6t-6.5 2h-244q-7 0 -7 8l4 36q1 7 10 7h300z" />
<glyph unicode="&#x2078;" horiz-adv-x="469" d="M340 821.5q43 -35.5 43 -92.5q0 -30 -15 -53.5t-49 -46.5q-9 -6 -1 -10q85 -32 85 -111q0 -60 -48.5 -95t-127.5 -35t-124.5 32t-45.5 90q0 34 17 60t55 50q8 6 8 8q0 3 -7 6q-60 33 -60 98q0 38 20 68.5t56 48.5t82 18q69 0 112 -35.5zM156 788.5q-29 -24.5 -29 -61.5 q0 -57 65 -72l65 -15q12 -3 29.5 10t30 35t12.5 44q0 37 -27 60.5t-73 23.5q-44 0 -73 -24.5zM313.5 444.5q30.5 22.5 30.5 60.5q0 30 -16 48t-51 27l-82 19q-13 3 -33 -9t-35.5 -34.5t-15.5 -48.5q0 -41 30.5 -63t88.5 -22q53 0 83.5 22.5z" />
<glyph unicode="&#x2079;" horiz-adv-x="473" d="M126 396.5q-32 17.5 -51 43.5q-2 3 -1.5 6t3.5 4l36 15q5 2 9 -4q15 -18 33.5 -27t46.5 -9q63 0 95.5 46t32.5 122q0 10 -2 13t-9 -1q-30 -16 -55.5 -24t-59.5 -8q-70 0 -110.5 38.5t-40.5 98.5q0 65 46.5 106t115.5 41q82 0 128.5 -61t46.5 -171q0 -115 -50 -180.5 t-138 -65.5q-44 0 -76 17.5zM267.5 626q30.5 9 49.5 23q8 5 10.5 10.5t2.5 16.5q0 32 -13 63.5t-39 52.5t-63 21q-44 0 -73.5 -29t-29.5 -72q0 -41 27.5 -68t71.5 -27q26 0 56.5 9z" />
<glyph unicode="&#x20ac;" horiz-adv-x="600" d="M561 56q-36 -31 -82.5 -48.5t-97.5 -17.5q-119 0 -197.5 71.5t-102.5 201.5h-80q-13 0 -13 12v32q0 12 9 12h77q-2 34 -2 53q0 20 2 54h-73q-13 0 -13 12v32q0 11 9 11h84q24 128 101.5 199.5t194.5 71.5q50 0 96 -17t82 -48q3 -3 3 -6q0 -4 -5 -9l-39 -36q-4 -4 -9.5 -5 t-8.5 2q-56 45 -112 45q-83 0 -134.5 -49.5t-69.5 -147.5l198 1q10 0 10 -10v-32q0 -7 -3.5 -10t-12.5 -3l-199 -1q-2 -34 -2 -56q0 -19 2 -51h205q10 0 10 -10v-31q0 -14 -16 -14l-192 -1q18 -97 71.5 -147t139.5 -50q65 0 121 43q6 6 11 1l36 -42q6 -8 2 -12z" />
<glyph unicode="&#x2116;" horiz-adv-x="1113" d="M649 742q6 0 8.5 -2.5t2.5 -9.5v-718q0 -12 -13 -12h-49q-8 0 -12.5 1.5t-8.5 6.5l-386 561q-4 7 -7.5 6t-3.5 -7v-555q0 -13 -14 -13h-56q-13 0 -13 13v715q0 8 2.5 11t10.5 3h57q8 0 12 -2t9 -8l375 -549q5 -6 9 -6q6 0 6 9v544q0 12 12 12h59zM1023.5 703 q43.5 -48 43.5 -126q0 -76 -43 -123t-117 -47t-116.5 47t-42.5 123q0 78 44 126t115 48q73 0 116.5 -48zM837 671q-24 -33 -24 -91q0 -60 24 -93.5t70 -33.5q47 0 71.5 33.5t24.5 93.5q0 58 -25 91t-71 33t-70 -33z" />
<glyph unicode="&#x2122;" horiz-adv-x="931" d="M26 735q0 7 8 7h336q8 0 8 -7v-33q0 -6 -8 -6h-127q-7 0 -7 -6v-404q0 -8 -7 -8h-45q-8 0 -8 8v403q0 4 -1 5.5t-5 1.5h-136q-8 0 -8 6v33zM447 287v446q0 9 7 9h60q5 0 7 -1.5t4 -5.5l139 -358q3 -6 5 -6t5 6l138 357q3 8 10 8h63q7 0 7 -8v-447q0 -9 -10 -9h-41 q-9 0 -9 8v358q0 3 -1 2.5t-2 -2.5l-138 -358q-3 -8 -12 -8h-30q-9 0 -12 8l-136 354q-1 3 -2 3t-1 -3v-354q0 -8 -9 -8h-34q-8 0 -8 9z" />
<glyph unicode="&#x25fc;" horiz-adv-x="530" d="M0 530h530v-530h-530v530z" />
<glyph horiz-adv-x="239" d="M165 641q0 -9 -4 -12.5t-14 -3.5h-58q-9 0 -12 3t-3 11v89q0 8 2.5 11t9.5 3h68q11 0 11 -13v-88zM161 17q0 -10 -4 -13.5t-14 -3.5h-51q-9 0 -12 3t-3 11v502q0 14 12 14h61q11 0 11 -13v-500z" />
<glyph horiz-adv-x="484" d="M319.5 275q39.5 -28 62 -82.5t22.5 -130.5t-22.5 -129.5t-62 -81t-90.5 -27.5q-78 0 -126 62t-48 175q0 76 22.5 131t62.5 83t90 28t89.5 -28zM313.5 -83.5q29.5 46.5 29.5 145.5q0 100 -30 147.5t-84 47.5q-53 0 -83 -48t-30 -147q0 -98 30 -145t84 -47t83.5 46.5z" />
<glyph horiz-adv-x="367" d="M272 -123v-36q0 -2 -2 -4t-5 -2h-221q-3 0 -5 2t-2 4v36q0 6 7 6h80q5 0 5 3v346q0 7 -6 5l-78 -29h-2q-6 0 -6 8v25q0 7 6 9l93 47q13 5 19 5h27q7 0 7 -8v-407q0 -4 4 -4h72q7 0 7 -6z" />
<glyph horiz-adv-x="452" d="M200 31q53 50 74 82t21 66q0 38 -27.5 60t-65.5 22q-29 0 -58 -15t-49 -47q-3 -7 -13 -2l-28 17q-8 5 -2 13q28 41 68.5 61t86.5 20q63 0 105 -34t42 -97q0 -40 -22 -75.5t-79 -89.5l-127 -119q-4 -2 -3 -4.5t7 -2.5h221q8 0 8 -7v-36q0 -8 -8 -8h-292q-6 0 -8 2.5 t-2 7.5v26q0 7 3 12t14 14z" />
<glyph horiz-adv-x="467" d="M76 243q58 62 146 62q72 0 114.5 -33t42.5 -85q0 -35 -21.5 -62t-58.5 -40q-7 -2 -7 -4q0 -1 7 -5q41 -11 67.5 -41.5t26.5 -73.5q0 -61 -46 -98t-133 -37q-96 0 -158 66q-2 4 -2 6t4 5l27 21q7 7 10 0q28 -29 56.5 -40.5t66.5 -11.5q55 0 85.5 23.5t30.5 63.5 q0 43 -35.5 68t-83.5 25l-56 1q-7 0 -7 6v33q0 4 7 6l46 1q49 0 82 24t33 61q0 32 -28 54t-70 22q-63 0 -112 -49q-4 -3 -6 -3t-6 3l-22 22q-4 4 0 10z" />
<glyph horiz-adv-x="483" d="M270.5 300.5q3.5 1.5 9.5 1.5h42q7 0 7 -8v-283q0 -6 5 -6h59q9 0 9 -6v-31q0 -8 -9 -8h-58q-6 0 -6 -6v-110q0 -9 -10 -9h-43q-8 0 -8 8v113q0 4 -5 4h-204q-10 0 -10 8v32q0 7 10 21l205 274q3 4 6.5 5.5zM261 5q6 0 6 5v210q0 7 -3 7q-2 0 -6 -5l-153 -208 q-3 -4 -2 -6.5t6 -2.5h152z" />
<glyph horiz-adv-x="470" d="M367 299q7 0 8.5 -1.5t1.5 -7.5l-3 -35q-1 -4 -2 -5.5t-7 -1.5h-214q-7 0 -7 -7l-11 -136v-2q0 -8 7 -6q31 16 52.5 23.5t52.5 7.5q67 0 111.5 -36.5t44.5 -106.5q0 -74 -49.5 -116.5t-129.5 -42.5q-49 0 -91 16.5t-71 48.5q-3 4 -3 6.5t4 6.5l27 22q4 3 11 -2 q29 -28 53.5 -40.5t61.5 -12.5q60 0 94 31t34 81q0 48 -30 73.5t-77 25.5q-30 0 -54 -9.5t-54 -27.5q-3 -2 -5 -2.5t-3.5 0.5t-2.5 2l-31 18q-6 2 -6 6l1 8l17 213q1 6 3 7.5t11 1.5h256z" />
<glyph horiz-adv-x="473" d="M319 284.5q31 -17.5 49 -43.5q4 -6 -2 -10l-36 -14q-3 -2 -5.5 -0.5t-3.5 4.5q-16 18 -33 27t-42 9q-66 0 -99 -46t-33 -122q0 -11 2.5 -13.5t9.5 1.5q34 16 58.5 24t57.5 8q71 0 112 -38.5t41 -98.5q0 -43 -21.5 -77t-58.5 -52.5t-82 -18.5q-83 0 -130.5 61.5 t-47.5 170.5q0 115 50.5 180.5t139.5 65.5q43 0 74 -17.5zM179 56.5q-31 -8.5 -51 -20.5q-7 -5 -9.5 -10.5t-2.5 -16.5q0 -32 13 -65t39.5 -54.5t64.5 -21.5q43 0 72.5 29.5t29.5 72.5q0 40 -27.5 67.5t-72.5 27.5q-25 0 -56 -8.5z" />
<glyph horiz-adv-x="432" d="M374 302q5 0 7.5 -2.5t1.5 -5.5l-1 -22q0 -12 -8 -23q-60 -89 -110 -211.5t-60 -190.5q-1 -6 -3 -9t-7 -3h-49q-11 0 -8 11q20 81 64.5 185.5t113.5 211.5q3 4 2.5 6t-6.5 2h-244q-7 0 -7 8l4 36q1 7 10 7h300z" />
<glyph horiz-adv-x="469" d="M340 269.5q43 -35.5 43 -92.5q0 -30 -15 -53.5t-49 -46.5q-9 -6 -1 -10q85 -32 85 -111q0 -60 -48.5 -95t-127.5 -35t-124.5 32t-45.5 90q0 34 17 60t55 50q8 6 8 8q0 3 -7 6q-60 33 -60 98q0 38 20 68.5t56 48.5t82 18q69 0 112 -35.5zM156 236.5q-29 -24.5 -29 -61.5 q0 -57 65 -72l65 -15q12 -3 29.5 10t30 35t12.5 44q0 37 -27 60.5t-73 23.5q-44 0 -73 -24.5zM313.5 -107.5q30.5 22.5 30.5 60.5q0 30 -16 48t-51 27l-82 19q-13 3 -33 -9t-35.5 -34.5t-15.5 -48.5q0 -41 30.5 -63t88.5 -22q53 0 83.5 22.5z" />
<glyph horiz-adv-x="473" d="M126 -158.5q-32 17.5 -51 43.5q-2 3 -1.5 6t3.5 4l36 15q5 2 9 -4q15 -18 33.5 -27t46.5 -9q63 0 95.5 46t32.5 122q0 10 -2 13t-9 -1q-30 -16 -55.5 -24t-59.5 -8q-70 0 -110.5 38.5t-40.5 98.5q0 65 46.5 106t115.5 41q82 0 128.5 -61t46.5 -171q0 -115 -50 -180.5 t-138 -65.5q-44 0 -76 17.5zM267.5 71q30.5 9 49.5 23q8 5 10.5 10.5t2.5 16.5q0 32 -13 63.5t-39 52.5t-63 21q-44 0 -73.5 -29t-29.5 -72q0 -41 27.5 -68t71.5 -27q26 0 56.5 9z" />
<glyph horiz-adv-x="416" d="M285.5 440q39.5 -28 62 -82.5t22.5 -130.5t-22.5 -129.5t-62 -81t-90.5 -27.5q-78 0 -126 62t-48 175q0 76 22.5 131t62.5 83t90 28t89.5 -28zM279.5 81.5q29.5 46.5 29.5 145.5q0 100 -30 147.5t-84 47.5q-53 0 -83 -48t-30 -147q0 -98 30 -145t84 -47t83.5 46.5z" />
<glyph horiz-adv-x="299" d="M238 42v-36q0 -2 -2 -4t-5 -2h-221q-3 0 -5 2t-2 4v36q0 6 7 6h80q5 0 5 3v346q0 7 -6 5l-78 -29h-2q-6 0 -6 8v25q0 7 6 9l93 47q13 5 19 5h27q7 0 7 -8v-407q0 -4 4 -4h72q7 0 7 -6z" />
<glyph horiz-adv-x="384" d="M166 196q53 50 74 82t21 66q0 38 -27.5 60t-65.5 22q-29 0 -58 -15t-49 -47q-3 -7 -13 -2l-28 17q-8 5 -2 13q28 41 68.5 61t86.5 20q63 0 105 -34t42 -97q0 -40 -22 -75.5t-79 -89.5l-127 -119q-4 -2 -3 -4.5t7 -2.5h221q8 0 8 -7v-36q0 -8 -8 -8h-292q-6 0 -8 2.5 t-2 7.5v26q0 7 3 12t14 14z" />
<glyph horiz-adv-x="399" d="M42 408q58 62 146 62q72 0 114.5 -33t42.5 -85q0 -35 -21.5 -62t-58.5 -40q-7 -2 -7 -4q0 -1 7 -5q41 -11 67.5 -41.5t26.5 -73.5q0 -61 -46 -98t-133 -37q-96 0 -158 66q-2 4 -2 6t4 5l27 21q7 7 10 0q28 -29 56.5 -40.5t66.5 -11.5q55 0 85.5 23.5t30.5 63.5 q0 43 -35.5 68t-83.5 25l-56 1q-7 0 -7 6v33q0 4 7 6l46 1q49 0 82 24t33 61q0 32 -28 54t-70 22q-63 0 -112 -49q-4 -3 -6 -3t-6 3l-22 22q-4 4 0 10z" />
<glyph horiz-adv-x="416" d="M237.5 465.5q3.5 1.5 9.5 1.5h42q7 0 7 -8v-283q0 -6 5 -6h59q9 0 9 -6v-31q0 -8 -9 -8h-58q-6 0 -6 -6v-110q0 -9 -10 -9h-43q-8 0 -8 8v113q0 4 -5 4h-204q-10 0 -10 8v32q0 7 10 21l205 274q3 4 6.5 5.5zM228 170q6 0 6 5v210q0 7 -3 7q-2 0 -6 -5l-153 -208 q-3 -4 -2 -6.5t6 -2.5h152z" />
<glyph horiz-adv-x="401" d="M332 464q7 0 8.5 -1.5t1.5 -7.5l-3 -35q-1 -4 -2 -5.5t-7 -1.5h-214q-7 0 -7 -7l-11 -136v-2q0 -8 7 -6q31 16 52.5 23.5t52.5 7.5q67 0 111.5 -36.5t44.5 -106.5q0 -74 -49.5 -116.5t-129.5 -42.5q-49 0 -91 16.5t-71 48.5q-3 4 -3 6.5t4 6.5l27 22q4 3 11 -2 q29 -28 53.5 -40.5t61.5 -12.5q60 0 94 31t34 81q0 48 -30 73.5t-77 25.5q-30 0 -54 -9.5t-54 -27.5q-3 -2 -5 -2.5t-3.5 0.5t-2.5 2l-31 18q-6 2 -6 6l1 8l17 213q1 6 3 7.5t11 1.5h256z" />
<glyph horiz-adv-x="404" d="M284 449.5q31 -17.5 49 -43.5q4 -6 -2 -10l-36 -14q-3 -2 -5.5 -0.5t-3.5 4.5q-16 18 -33 27t-42 9q-66 0 -99 -46t-33 -122q0 -11 2.5 -13.5t9.5 1.5q34 16 58.5 24t57.5 8q71 0 112 -38.5t41 -98.5q0 -43 -21.5 -77t-58.5 -52.5t-82 -18.5q-83 0 -130.5 61.5 t-47.5 170.5q0 115 50.5 180.5t139.5 65.5q43 0 74 -17.5zM144 221.5q-31 -8.5 -51 -20.5q-7 -5 -9.5 -10.5t-2.5 -16.5q0 -32 13 -65t39.5 -54.5t64.5 -21.5q43 0 72.5 29.5t29.5 72.5q0 40 -27.5 67.5t-72.5 27.5q-25 0 -56 -8.5z" />
<glyph horiz-adv-x="365" d="M341 467q5 0 7.5 -2.5t1.5 -5.5l-1 -22q0 -12 -8 -23q-60 -89 -110 -211.5t-60 -190.5q-1 -6 -3 -9t-7 -3h-49q-11 0 -8 11q20 81 64.5 185.5t113.5 211.5q3 4 2.5 6t-6.5 2h-244q-7 0 -7 8l4 36q1 7 10 7h300z" />
<glyph horiz-adv-x="401" d="M306 433.5q43 -35.5 43 -92.5q0 -30 -15 -53.5t-49 -46.5q-9 -6 -1 -10q85 -32 85 -111q0 -60 -48.5 -95t-127.5 -35t-124.5 32t-45.5 90q0 34 17 60t55 50q8 6 8 8q0 3 -7 6q-60 33 -60 98q0 38 20 68.5t56 48.5t82 18q69 0 112 -35.5zM122 400.5q-29 -24.5 -29 -61.5 q0 -57 65 -72l65 -15q12 -3 29.5 10t30 35t12.5 44q0 37 -27 60.5t-73 23.5q-44 0 -73 -24.5zM279.5 56.5q30.5 22.5 30.5 60.5q0 30 -16 48t-51 27l-82 19q-13 3 -33 -9t-35.5 -34.5t-15.5 -48.5q0 -41 30.5 -63t88.5 -22q53 0 83.5 22.5z" />
<glyph horiz-adv-x="404" d="M91 6.5q-32 17.5 -51 43.5q-2 3 -1.5 6t3.5 4l36 15q5 2 9 -4q15 -18 33.5 -27t46.5 -9q63 0 95.5 46t32.5 122q0 10 -2 13t-9 -1q-30 -16 -55.5 -24t-59.5 -8q-70 0 -110.5 38.5t-40.5 98.5q0 65 46.5 106t115.5 41q82 0 128.5 -61t46.5 -171q0 -115 -50 -180.5 t-138 -65.5q-44 0 -76 17.5zM232.5 236q30.5 9 49.5 23q8 5 10.5 10.5t2.5 16.5q0 32 -13 63.5t-39 52.5t-63 21q-44 0 -73.5 -29t-29.5 -72q0 -41 27.5 -68t71.5 -27q26 0 56.5 9z" />
<glyph horiz-adv-x="416" d="M285.5 724q39.5 -28 62 -82.5t22.5 -130.5t-22.5 -129.5t-62 -81t-90.5 -27.5q-78 0 -126 62t-48 175q0 76 22.5 131t62.5 83t90 28t89.5 -28zM279.5 365.5q29.5 46.5 29.5 145.5q0 100 -30 147.5t-84 47.5q-53 0 -83 -48t-30 -147q0 -98 30 -145t84 -47t83.5 46.5z" />
<glyph horiz-adv-x="299" d="M238 318v-36q0 -2 -2 -4t-5 -2h-221q-3 0 -5 2t-2 4v36q0 6 7 6h80q5 0 5 3v346q0 7 -6 5l-78 -29h-2q-6 0 -6 8v25q0 7 6 9l93 47q13 5 19 5h27q7 0 7 -8v-407q0 -4 4 -4h72q7 0 7 -6z" />
<glyph horiz-adv-x="384" d="M166 475q53 50 74 82t21 66q0 38 -27.5 60t-65.5 22q-29 0 -58 -15t-49 -47q-3 -7 -13 -2l-28 17q-8 5 -2 13q28 41 68.5 61t86.5 20q63 0 105 -34t42 -97q0 -40 -22 -75.5t-79 -89.5l-127 -119q-4 -2 -3 -4.5t7 -2.5h221q8 0 8 -7v-36q0 -8 -8 -8h-292q-6 0 -8 2.5 t-2 7.5v26q0 7 3 12t14 14z" />
<glyph horiz-adv-x="399" d="M42 690q58 62 146 62q72 0 114.5 -33t42.5 -85q0 -35 -21.5 -62t-58.5 -40q-7 -2 -7 -4q0 -1 7 -5q41 -11 67.5 -41.5t26.5 -73.5q0 -61 -46 -98t-133 -37q-96 0 -158 66q-2 4 -2 6t4 5l27 21q7 7 10 0q28 -29 56.5 -40.5t66.5 -11.5q55 0 85.5 23.5t30.5 63.5 q0 43 -35.5 68t-83.5 25l-56 1q-7 0 -7 6v33q0 4 7 6l46 1q49 0 82 24t33 61q0 32 -28 54t-70 22q-63 0 -112 -49q-4 -3 -6 -3t-6 3l-22 22q-4 4 0 10z" />
<glyph horiz-adv-x="416" d="M237.5 741.5q3.5 1.5 9.5 1.5h42q7 0 7 -8v-283q0 -6 5 -6h59q9 0 9 -6v-31q0 -8 -9 -8h-58q-6 0 -6 -6v-110q0 -9 -10 -9h-43q-8 0 -8 8v113q0 4 -5 4h-204q-10 0 -10 8v32q0 7 10 21l205 274q3 4 6.5 5.5zM228 446q6 0 6 5v210q0 7 -3 7q-2 0 -6 -5l-153 -208 q-3 -4 -2 -6.5t6 -2.5h152z" />
<glyph horiz-adv-x="401" d="M332 743q7 0 8.5 -1.5t1.5 -7.5l-3 -35q-1 -4 -2 -5.5t-7 -1.5h-214q-7 0 -7 -7l-11 -136v-2q0 -8 7 -6q31 16 52.5 23.5t52.5 7.5q67 0 111.5 -36.5t44.5 -106.5q0 -74 -49.5 -116.5t-129.5 -42.5q-49 0 -91 16.5t-71 48.5q-3 4 -3 6.5t4 6.5l27 22q4 3 11 -2 q29 -28 53.5 -40.5t61.5 -12.5q60 0 94 31t34 81q0 48 -30 73.5t-77 25.5q-30 0 -54 -9.5t-54 -27.5q-3 -2 -5 -2.5t-3.5 0.5t-2.5 2l-31 18q-6 2 -6 6l1 8l17 213q1 6 3 7.5t11 1.5h256z" />
<glyph horiz-adv-x="404" d="M284 734.5q31 -17.5 49 -43.5q4 -6 -2 -10l-36 -14q-3 -2 -5.5 -0.5t-3.5 4.5q-16 18 -33 27t-42 9q-66 0 -99 -46t-33 -122q0 -11 2.5 -13.5t9.5 1.5q34 16 58.5 24t57.5 8q71 0 112 -38.5t41 -98.5q0 -43 -21.5 -77t-58.5 -52.5t-82 -18.5q-83 0 -130.5 61.5 t-47.5 170.5q0 115 50.5 180.5t139.5 65.5q43 0 74 -17.5zM144 506.5q-31 -8.5 -51 -20.5q-7 -5 -9.5 -10.5t-2.5 -16.5q0 -32 13 -65t39.5 -54.5t64.5 -21.5q43 0 72.5 29.5t29.5 72.5q0 40 -27.5 67.5t-72.5 27.5q-25 0 -56 -8.5z" />
<glyph horiz-adv-x="365" d="M341 742q5 0 7.5 -2.5t1.5 -5.5l-1 -22q0 -12 -8 -23q-60 -89 -110 -211.5t-60 -190.5q-1 -6 -3 -9t-7 -3h-49q-11 0 -8 11q20 81 64.5 185.5t113.5 211.5q3 4 2.5 6t-6.5 2h-244q-7 0 -7 8l4 36q1 7 10 7h300z" />
<glyph horiz-adv-x="401" d="M306 716.5q43 -35.5 43 -92.5q0 -30 -15 -53.5t-49 -46.5q-9 -6 -1 -10q85 -32 85 -111q0 -60 -48.5 -95t-127.5 -35t-124.5 32t-45.5 90q0 34 17 60t55 50q8 6 8 8q0 3 -7 6q-60 33 -60 98q0 38 20 68.5t56 48.5t82 18q69 0 112 -35.5zM122 683.5q-29 -24.5 -29 -61.5 q0 -57 65 -72l65 -15q12 -3 29.5 10t30 35t12.5 44q0 37 -27 60.5t-73 23.5q-44 0 -73 -24.5zM279.5 339.5q30.5 22.5 30.5 60.5q0 30 -16 48t-51 27l-82 19q-13 3 -33 -9t-35.5 -34.5t-15.5 -48.5q0 -41 30.5 -63t88.5 -22q53 0 83.5 22.5z" />
<glyph horiz-adv-x="404" d="M91 291.5q-32 17.5 -51 43.5q-2 3 -1.5 6t3.5 4l36 15q5 2 9 -4q15 -18 33.5 -27t46.5 -9q63 0 95.5 46t32.5 122q0 10 -2 13t-9 -1q-30 -16 -55.5 -24t-59.5 -8q-70 0 -110.5 38.5t-40.5 98.5q0 65 46.5 106t115.5 41q82 0 128.5 -61t46.5 -171q0 -115 -50 -180.5 t-138 -65.5q-44 0 -76 17.5zM232.5 521q30.5 9 49.5 23q8 5 10.5 10.5t2.5 16.5q0 32 -13 63.5t-39 52.5t-63 21q-44 0 -73.5 -29t-29.5 -72q0 -41 27.5 -68t71.5 -27q26 0 56.5 9z" />
</font>
</defs>
</svg>
