<?xml version="1.0" standalone="no"?>
<!DOCTYPE svg PUBLIC "-//W3C//DTD SVG 1.1//EN" "http://www.w3.org/Graphics/SVG/1.1/DTD/svg11.dtd">
<svg xmlns="http://www.w3.org/2000/svg">
<defs >
<font id="LibreFranklin" horiz-adv-x="582" ><font-face
    font-family="Libre Franklin Medium"
    units-per-em="1000"
    panose-1="0 0 6 0 0 0 0 0 0 0"
    ascent="966"
    descent="-246"
    alphabetic="0" />
<glyph unicode=" " glyph-name="space" horiz-adv-x="212" />
<glyph unicode="!" glyph-name="exclam" horiz-adv-x="251" d="M161 213Q160 204 156 201T141 197H105Q96 197 93 200T89 211L63 728V730Q63 742 74 742H176Q181 742 184 739T187 730L161 213ZM186 18Q186 8 181 4T165 0H80Q71 0 67 4T63 16V113Q63 128 75 128H174Q186
128 186 115V18Z" />
<glyph unicode="&quot;" glyph-name="quotedbl" horiz-adv-x="428" d="M340 510Q338 500 335 497T320 493H293Q284 493 281 496T277 507L249 729V731Q249 742 260 742H357Q370 742 368 730L340 510ZM154 510Q152 500 149 497T134 493H107Q98 493 95 496T91 507L63
729V731Q63 742 74 742H171Q184 742 182 730L154 510Z" />
<glyph unicode="#" glyph-name="numbersign" horiz-adv-x="603" d="M575 510T575 499V465Q575 448 555 448H454L432 300H530Q542 300 542 289V255Q542 238 522 238H423L389 17Q388 6 385 3T371 0L342 4Q332 6 329 8T326 18L359 238H211L178 17Q176 6 173 3T160
0L130 4Q121 6 118 8T115 18L148 238H44Q35 238 32 241T29 253V287Q29 300 39 300H157L180 448H77Q68 448 65 451T62 463V497Q62 510 72 510H189L222 729Q226 743 234 742L273 737Q287 735 284 722L252 510H401L434 729Q436 743 446 742L485 737Q497 735 496 722L464
510H563Q575 510 575 499ZM391 448H243L221 300H369L391 448Z" />
<glyph unicode="$" glyph-name="dollar" horiz-adv-x="621" d="M584 138T557 94T482 24T369 -6Q361 -7 359 -9T356 -18V-68Q356 -85 339 -85H297Q282 -85 282 -71V-18Q282 -11 280 -9T272 -6Q193 -4 139 21T41 99Q32 106 32 114Q32 120 36 123L77 165Q85 171 90
171Q96 171 101 166Q136 124 176 102T271 76H275Q280 76 281 78T283 85V307Q283 315 279 320T265 330Q150 366 103 415T55 541Q55 621 112 676T269 745Q274 745 278 748T283 757V803Q283 808 285 811T292 814H342Q355 814 355 799V753Q355 747 366 744Q470 729
546 661Q553 656 553 650Q553 646 548 641L508 594Q503 589 499 589Q494 589 486 597Q466 620 435 636T366 660L362 661Q355 661 355 652V427Q355 421 357 419T367 413L410 400Q493 371 538 319T584 193Q584 138 557 94ZM283 654Q283 666 271 663Q215 656 183 626T151
550Q151 514 176 488T263 437Q266 436 271 436Q283 436 283 452V654ZM356 75T366 76Q421 79 454 108T487 182Q487 224 460 252T370 303Q367 304 363 304Q359 304 358 302T356 294V82Q356 75 366 76Z" />
<glyph unicode="%" glyph-name="percent" horiz-adv-x="925" d="M279 753T319 727T382 652T405 541Q405 479 383 431T320 357T229 330Q178 330 138 356T74 431T51 541Q51 603 74 651T137 726T229 753Q279 753 319 727ZM254 6Q251 0 247 -2T234 -4H203Q190 -4 190
7Q190 13 194 18L675 742Q678 747 682 748T693 750H732Q739 750 741 747T739 737L254 6ZM274 388T299 429T325 540Q325 611 300 653T228 695Q182 695 157 653T131 540Q131 470 156 429T228 388Q274 388 299 429ZM748 413T788 387T851 312T874 201Q874 139 852 91T789
17T698 -10Q647 -10 606 16T542 91T519 201Q519 263 542 311T606 386T698 413Q748 413 788 387ZM742 48T768 89T794 200Q794 270 768 312T697 355Q652 355 626 312T600 200Q600 132 626 90T697 48Q742 48 768 89Z" />
<glyph unicode="&amp;" glyph-name="ampersand" horiz-adv-x="797" d="M437 753T493 711T549 600Q549 545 506 494T380 404Q372 401 372 397Q372 395 377 388L518 226Q523 220 526 220Q529 220 537 228Q569 260 603 310T649 394Q651 400 656 401T668 401L720 384Q726
382 729 376T730 365Q715 324 679 270T596 165Q591 158 591 156Q591 154 594 151T598 147Q625 124 668 109T753 92Q769 92 769 77V20Q769 9 765 5T750 0Q690 0 626 22T517 78Q512 82 507 82Q501 82 496 77Q397 -5 269 -5Q162 -5 101 47T40 190Q40 250 77 300T197
399Q207 405 207 410Q207 415 199 424Q134 492 134 569Q134 621 162 663T239 729T349 753Q437 753 493 711ZM303 683T273 652T242 576Q242 534 279 494L308 460Q311 457 317 457Q320 457 326 459Q392 490 422 523T452 597Q452 638 424 660T354 683Q303 683 273
652ZM274 343T266 343Q260 343 253 339Q207 316 181 279T155 199Q155 147 193 112T290 77Q327 77 365 92T432 133Q440 141 440 146Q440 150 435 157L281 334Q274 343 266 343Z" />
<glyph unicode="&apos;" glyph-name="quotesingle" horiz-adv-x="242" d="M154 510Q152 500 149 497T134 493H107Q98 493 95 496T91 507L63 729V731Q63 742 74 742H171Q184 742 182 730L154 510Z" />
<glyph unicode="(" glyph-name="parenleft" horiz-adv-x="294" d="M274 742T275 739T275 732Q222 628 192 513T161 284Q161 174 188 68T269 -154Q270 -155 270 -158Q270 -165 261 -165H210Q203 -165 196 -157Q129 -41 95 62T61 285Q61 405 99 520T202 733Q210
742 221 742H268Q274 742 275 739Z" />
<glyph unicode=")" glyph-name="parenright" horiz-adv-x="294" d="M73 742Q84 742 92 733Q157 635 195 520T233 285Q233 165 199 62T98 -157Q91 -165 84 -165H33Q27 -165 25 -162T25 -154Q79 -38 106 68T133 284Q133 398 103 513T19 732Q18 733 18 736Q18 742
26 742H73Z" />
<glyph unicode="*" glyph-name="asterisk" horiz-adv-x="407" d="M211 510Q208 514 204 510L129 389Q128 385 122 385Q117 385 113 388L72 416Q63 423 70 431L157 538Q159 541 158 543T153 547L34 581Q30 582 29 586T29 595L45 639Q48 648 57 644L170 598Q179
595 179 603L170 732V734Q170 737 173 739T180 742H235Q244 742 244 732L235 603Q235 594 242 597L358 647Q362 649 364 649Q369 649 372 641L385 598Q386 596 386 593Q386 587 379 584L262 547Q258 546 258 544T260 538L342 436Q345 433 345 429Q345 424 338 418L301
392Q297 388 291 388Q285 388 282 393L211 510Z" />
<glyph unicode="+" glyph-name="plus" horiz-adv-x="565" d="M509 413T509 402V349Q509 340 505 337T489 333H324V159Q324 148 312 148H260Q243 148 243 167V332H73Q64 332 61 335T58 347V399Q58 413 68 413H243V583Q243 592 246 595T257 599H310Q323 599 323
588V413H497Q509 413 509 402Z" />
<glyph unicode="," glyph-name="comma" horiz-adv-x="225" d="M46 -147T44 -142T44 -131L90 -19Q93 -13 93 -9Q93 0 82 0H67Q51 0 51 14V115Q51 128 63 128H163Q174 128 174 116V23Q174 17 172 9L91 -134Q81 -147 66 -147H52Q46 -147 44 -142Z" />
<glyph unicode="-" glyph-name="hyphen" horiz-adv-x="381" d="M323 240Q323 224 303 224H73Q65 224 62 227T58 238V291Q58 305 69 305H311Q323 305 323 294V240Z" />
<glyph unicode="." glyph-name="period" horiz-adv-x="222" d="M172 18Q172 8 167 4T150 0H65Q48 0 48 16V115Q48 122 51 125T60 129H160Q172 129 172 116V18Z" />
<glyph unicode="/" glyph-name="slash" horiz-adv-x="349" d="M7 -35T10 -24L261 731Q264 742 276 742H327Q339 742 339 733Q339 727 337 723L92 -20Q87 -35 71 -35H20Q7 -35 10 -24Z" />
<glyph unicode="0" glyph-name="zero" horiz-adv-x="694" d="M431 752T496 707T598 575T635 369Q635 251 598 166T496 36T347 -9Q263 -9 198 35T96 165T59 368Q59 487 96 574T199 706T348 752Q431 752 496 707ZM428 80T470 149T512 369Q512 664 347 664Q268 664
225 592T182 369Q182 220 225 150T348 80Q428 80 470 149Z" />
<glyph unicode="1" glyph-name="one" horiz-adv-x="479" d="M440 92T440 81V13Q440 7 436 4T425 0H61Q47 0 47 12V81Q47 92 60 92H179Q188 92 188 98V607Q188 614 186 616T177 616L62 576Q60 575 57 575Q46 575 46 590V638Q46 646 48 649T57 656L212 733Q223 738
229 740T246 742H297Q309 742 309 728V101Q309 92 316 92H426Q440 92 440 81Z" />
<glyph unicode="2" glyph-name="two" horiz-adv-x="613" d="M283 314Q343 369 375 406T421 474T435 541Q435 597 395 629T299 661Q254 661 212 637T136 560Q133 554 125 554Q120 554 114 557L56 589Q47 597 47 603Q47 610 51 615Q97 684 163 718T308 752Q377 752
432 728T520 655T553 538Q553 475 519 421T398 288L201 113Q196 108 196 106Q196 101 207 101H546Q561 101 561 88V14Q561 0 546 0H64Q53 0 49 3T45 17V70Q45 80 51 89T78 116L283 314Z" />
<glyph unicode="3" glyph-name="three" horiz-adv-x="649" d="M70 639T70 642Q70 646 73 652Q117 701 179 726T313 752Q392 752 450 728T540 660T572 562Q572 509 540 466T449 403Q437 399 437 395Q437 391 448 388Q513 369 554 321T595 208Q595 108 520 49T300
-10Q221 -10 155 18T42 102Q38 108 38 111Q38 117 46 123L100 163Q107 168 110 168Q112 168 118 164Q163 118 206 99T308 79Q387 79 431 113T476 205Q476 267 426 303T303 341L216 342Q202 342 202 353V418Q202 427 216 429L286 431Q358 432 406 467T454 556Q454
602 414 633T313 665Q264 665 222 646T140 589Q134 583 130 583Q126 583 120 589L73 634Q70 639 70 642Z" />
<glyph unicode="4" glyph-name="four" horiz-adv-x="661" d="M385 737T391 739T408 742H494Q507 742 507 728V288Q507 278 516 278H606Q621 278 621 266V206Q621 191 606 191H517Q507 191 507 181V17Q507 8 503 4T488 0H401Q385 0 385 16V184Q385 191 375 191H59Q42
191 42 206V267Q42 281 61 305L379 729Q385 737 391 739ZM375 278Q379 278 381 280T384 285V592Q384 605 380 605Q378 605 370 596L146 291Q143 287 143 284Q143 278 153 278H375Z" />
<glyph unicode="5" glyph-name="five" horiz-adv-x="661" d="M550 742Q562 742 565 739T567 725L563 657Q562 648 559 646T547 643H214Q201 643 200 631L185 442V438Q185 433 188 431T197 430Q248 452 279 462T356 472Q427 472 484 447T576 370T610 243Q610 165
573 108T471 20T320 -10Q237 -10 167 18T51 99Q45 107 45 112Q45 119 53 124L108 166Q113 169 116 169Q122 169 128 163Q174 119 211 99T306 78Q393 78 442 122T491 239Q491 308 447 346T333 384Q290 384 256 371T175 331Q167 327 164 327Q162 327 154 332L92 367Q87
369 85 371T82 378L84 392L111 725Q112 736 116 739T138 742H550Z" />
<glyph unicode="6" glyph-name="six" horiz-adv-x="669" d="M445 751T499 719T578 642L580 634Q580 627 573 624L500 597Q498 596 495 596Q488 596 483 605Q461 634 435 648T371 663Q276 663 228 596T179 420Q179 407 180 402T187 396Q188 396 198 400Q248 423
285 434T373 446Q448 446 504 418T590 341T620 228Q620 159 585 105T488 21T352 -9Q262 -9 196 35T95 161T59 358Q59 479 97 568T205 704T370 751Q445 751 499 719ZM316 362T271 350T199 320Q188 312 185 305T181 280Q181 231 200 184T258 106T350 75Q392 75 426
94T481 148T501 224Q501 284 460 323T353 362Q316 362 271 350Z" />
<glyph unicode="7" glyph-name="seven" horiz-adv-x="606" d="M546 742Q555 742 560 738T565 727L563 685Q563 669 545 643Q484 551 429 432T336 202T290 22Q289 0 273 0H169Q150 0 155 20Q189 149 256 303T432 629Q435 634 435 638Q435 643 425 643H53Q38 643
39 658L46 731Q47 742 65 742H546Z" />
<glyph unicode="8" glyph-name="eight" horiz-adv-x="673" d="M408 752T466 726T556 653T588 547Q588 502 565 466T489 395Q481 390 481 386Q481 382 488 379Q557 349 589 305T621 201Q621 136 585 89T483 16T331 -10Q204 -10 129 41T54 184Q54 237 81 277T169
356Q181 364 181 367Q181 371 170 377Q125 404 100 441T74 533Q74 594 106 644T198 723T334 752Q408 752 466 726ZM273 668T231 633T189 545Q189 505 212 479T281 441L376 418Q395 413 421 431T465 482T484 547Q484 600 444 634T336 668Q273 668 231 633ZM413 74T457
106T502 194Q502 236 479 262T404 302L285 333Q282 334 275 334Q253 334 226 316T179 266T160 199Q160 140 205 107T337 74Q413 74 457 106Z" />
<glyph unicode="9" glyph-name="nine" horiz-adv-x="666" d="M222 -9T167 23T85 100Q83 106 83 109Q83 115 90 118L163 145Q165 146 168 146Q174 146 180 138Q202 109 229 94T299 79Q391 79 439 146T487 322Q487 346 479 346Q478 346 468 342Q419 319 382 308T296
296Q221 296 165 324T79 401T49 514Q49 583 84 637T181 721T318 751Q407 751 472 707T572 581T607 384Q607 263 570 174T463 38T299 -9Q222 -9 167 23ZM353 380T397 393T468 426Q479 434 482 441T486 466Q486 514 467 560T410 637T319 667Q277 667 243 648T189
594T169 519Q169 459 209 420T314 380Q353 380 397 393Z" />
<glyph unicode=":" glyph-name="colon" horiz-adv-x="222" d="M172 401Q172 391 167 387T150 383H65Q48 383 48 399V496Q48 503 51 506T60 510H160Q172 510 172 497V401ZM172 21Q172 11 167 7T150 3H65Q48 3 48 20V116Q48 131 60 131H160Q172 131 172 118V21Z" />
<glyph unicode=";" glyph-name="semicolon" horiz-adv-x="238" d="M48 380T48 396V495Q48 502 51 505T60 509H160Q172 509 172 496V398Q172 388 167 384T150 380H65Q48 380 48 396ZM46 -148T44 -143T44 -132L90 -19Q93 -13 93 -9Q93 0 82 0H67Q51 0 51 14V115Q51
128 63 128H163Q174 128 174 116V23Q174 17 172 9L91 -135Q82 -148 66 -148H52Q46 -148 44 -143Z" />
<glyph unicode="&lt;" glyph-name="less" horiz-adv-x="554" d="M490 162Q490 143 475 143Q469 143 465 145L66 301Q50 306 50 321V387Q50 395 54 400T66 408L465 565Q473 567 475 567Q482 567 486 563T491 550V495Q491 486 485 480T464 468L173 354L464 241Q479
234 484 229T490 214V162Z" />
<glyph unicode="=" glyph-name="equal" horiz-adv-x="565" d="M509 448Q509 431 489 431H73Q64 431 61 434T58 445V498Q58 511 68 511L497 512Q502 512 505 509T509 500V448ZM509 219Q509 210 505 207T489 203L73 202Q64 202 61 205T58 216V269Q58 283 68 283H497Q509
283 509 271V219Z" />
<glyph unicode="&gt;" glyph-name="greater" horiz-adv-x="554" d="M64 224T70 229T91 241L382 354L90 468Q76 473 70 479T64 495V550Q64 558 68 562T79 567Q83 567 89 565L488 408Q505 401 505 387V321Q505 306 488 301L89 145Q86 143 79 143Q64 143 64 162V214Q64
224 70 229Z" />
<glyph unicode="?" glyph-name="question" horiz-adv-x="527" d="M18 600T22 612Q54 678 118 715T265 752Q333 752 385 729T466 666T495 574Q495 519 470 480T393 392Q343 344 318 306T292 214Q292 208 288 204T278 199H219Q203 199 203 216Q203 263 218 300T254
365T309 429Q349 472 368 502T388 570Q388 617 354 645T264 674Q216 674 173 648T114 583Q112 578 109 577T99 576L28 596Q18 600 22 612ZM309 18Q309 8 304 4T288 0H202Q193 0 190 4T186 16V113Q186 128 198 128H297Q309 128 309 115V18Z" />
<glyph unicode="@" glyph-name="at" horiz-adv-x="834" d="M616 -77T558 -95T433 -113Q314 -113 226 -63T92 72T45 261Q45 369 95 461T238 607T449 661Q542 661 623 626T754 519T805 339Q805 264 780 206T711 114T611 81Q535 81 519 132Q516 139 514 139Q512 139
507 133Q455 67 369 67Q330 67 297 88T245 149T225 241Q225 304 249 357T319 443T421 475Q495 475 534 415Q537 413 539 414T542 419L548 443Q549 449 557 449H610Q618 449 617 442L580 223Q577 207 577 195Q577 149 617 149Q648 149 674 171T715 235T731 333Q731
423 691 482T587 567T449 594Q345 594 271 550T158 429T120 261Q120 170 158 100T270 -9T447 -49Q506 -49 541 -36T622 7Q627 11 633 11Q639 11 642 6L665 -26Q668 -31 668 -33Q668 -38 658 -46Q616 -77 558 -95ZM309 199T329 169T387 139Q422 139 450 161T496
219T513 296Q513 346 488 374T427 403Q376 403 343 359T309 250Q309 199 329 169Z" />
<glyph unicode="A" glyph-name="A" horiz-adv-x="741" d="M41 0T41 12L43 21L298 726Q301 735 306 738T320 742H421Q440 742 446 725L699 20Q700 18 700 13Q700 0 689 0H594Q581 0 577 12L513 190Q511 195 509 197T501 199H224Q215 199 212 191L147 10Q144 0 130
0H53Q41 0 41 12ZM470 293Q477 293 478 296T478 307L370 607Q367 614 363 614Q359 614 356 606L245 306L244 300Q244 293 253 293H470Z" />
<glyph unicode="B" glyph-name="B" horiz-adv-x="707" d="M96 0T92 4T88 14V725Q88 742 104 742H347Q485 742 559 693T633 549Q633 490 602 450T502 384Q498 383 498 380T502 375Q576 355 613 312T651 199Q651 99 576 50T356 0H103Q96 0 92 4ZM361 419Q424 419
468 447T512 535Q512 595 469 626T349 657H224Q209 657 209 644V433Q209 419 220 419H361ZM351 85Q525 85 525 206Q525 269 480 300T361 331H225Q216 331 213 328T209 318V100Q209 85 220 85H351Z" />
<glyph unicode="C" glyph-name="C" horiz-adv-x="712" d="M448 752T509 724T610 647T659 542Q660 538 660 532Q660 527 658 526T650 523L557 517H554Q548 517 545 528Q531 590 489 627T383 664Q286 664 236 592T185 372Q185 226 235 154T387 82Q455 82 500 115T574
221Q575 228 589 226L660 209Q669 207 667 192Q653 144 617 98T520 21T382 -10Q282 -10 209 37T97 170T58 373Q58 490 96 575T207 706T379 752Q448 752 509 724Z" />
<glyph unicode="D" glyph-name="D" horiz-adv-x="731" d="M225 742T283 741Q484 737 578 645T673 375Q673 191 573 96T274 0H106Q88 0 88 18V727Q88 735 92 738T105 742Q225 742 283 741ZM209 653T209 639V100Q209 93 211 91T221 88H254Q357 88 421 116T516 207T547
374Q547 476 519 535T432 621T279 652L217 653Q209 653 209 639Z" />
<glyph unicode="E" glyph-name="E" horiz-adv-x="636" d="M88 735T91 738T102 742H568Q580 742 580 729L579 666Q579 651 564 651H224Q209 651 209 638V432Q209 419 222 419H466Q479 419 479 407V340Q479 329 466 329H221Q209 329 209 318V102Q209 96 211 94T219
91H578Q586 91 589 89T592 79V13Q592 0 578 0H105Q95 0 92 3T88 16V727Q88 735 91 738Z" />
<glyph unicode="F" glyph-name="F" horiz-adv-x="611" d="M88 742T102 742H559Q571 742 571 729L570 666Q570 651 555 651H224Q216 651 213 648T209 638V420Q209 408 222 408H473Q485 408 485 396V330Q485 324 483 322T473 319H221Q209 319 209 307V16Q209 7 205
4T191 0H105Q95 0 92 3T88 16V727Q88 742 102 742Z" />
<glyph unicode="G" glyph-name="G" horiz-adv-x="743" d="M279 -10T207 36T97 167T58 368Q58 486 98 573T211 706T382 752Q453 752 514 724T614 648T662 548Q663 544 663 539Q663 534 661 532T653 529L562 515H560Q555 515 553 518T550 527Q539 585 493 624T380
663Q285 663 235 591T185 374Q185 79 383 79Q438 79 477 102T537 162T563 239L564 289V293Q564 301 554 301H404Q397 301 395 303T392 313V366Q392 377 403 377L657 376Q677 376 677 360V13Q677 0 664 0H638Q630 0 625 2T617 13L601 99Q598 108 591 99Q519 -10
376 -10Q279 -10 207 36Z" />
<glyph unicode="H" glyph-name="H" horiz-adv-x="740" d="M219 338Q215 338 212 335T209 328V17Q209 0 190 0H105Q96 0 92 4T88 16V727Q88 742 102 742H196Q209 742 209 727V446Q209 438 212 435T222 432H519Q531 432 531 445V728Q531 742 543 742H639Q652 742
652 727V16Q652 8 649 4T635 0H551Q540 0 536 3T531 17V327Q531 338 520 338H219Z" />
<glyph unicode="I" glyph-name="I" horiz-adv-x="298" d="M196 742Q209 742 209 727V19Q209 8 205 4T188 0H106Q96 0 92 3T88 16V727Q88 742 102 742H196Z" />
<glyph unicode="J" glyph-name="J" horiz-adv-x="427" d="M343 79T301 35T168 -10Q120 -10 54 10Q36 13 39 33L48 98Q50 113 62 110Q67 108 79 103T107 95T139 92Q184 92 203 116T222 201V727Q222 742 235 742H331Q343 742 343 727V172Q343 79 301 35Z" />
<glyph unicode="K" glyph-name="K" horiz-adv-x="714" d="M676 13T676 8Q676 0 666 0H562Q547 0 541 11L339 363Q337 368 333 368Q330 368 323 361L216 238Q209 230 209 219V17Q209 0 190 0H105Q96 0 92 3T88 16V728Q88 742 101 742H197Q209 742 209 729V383Q209
375 212 375Q214 375 219 380L520 731Q526 737 530 739T545 742H630Q636 742 640 740T644 733Q644 729 640 725L420 476Q416 470 416 468Q416 465 419 459L673 17Q676 13 676 8Z" />
<glyph unicode="L" glyph-name="L" horiz-adv-x="610" d="M88 742T102 742H196Q209 742 209 727V102Q209 96 211 94T219 91H557Q564 91 567 89T571 79V13Q571 0 557 0H105Q96 0 92 4T88 16V727Q88 742 102 742Z" />
<glyph unicode="M" glyph-name="M" horiz-adv-x="919" d="M88 0T88 17V727Q88 735 91 738T102 742H233Q242 742 246 740T252 730L452 205Q455 196 459 196Q462 196 467 206L664 726Q670 742 682 742H818Q831 742 831 727V18Q831 8 827 4T813 0H727Q718 0 714 3T710
16V564Q710 569 708 569T704 563L498 14Q493 0 479 0H419Q404 0 398 13L196 557Q194 564 192 564T189 557V14Q189 6 186 3T174 0H104Q88 0 88 17Z" />
<glyph unicode="N" glyph-name="N" horiz-adv-x="757" d="M658 742Q669 742 669 729V13Q669 7 665 4T654 0H589Q581 0 577 1T567 10L202 534Q198 541 195 540T191 533V14Q191 0 175 0H104Q88 0 88 14V727Q88 735 91 738T103 742H181Q190 742 194 740T203 730L553
223Q559 216 562 216Q568 216 568 225V728Q568 742 582 742H658Z" />
<glyph unicode="O" glyph-name="O" horiz-adv-x="767" d="M283 -10T210 34T98 164T59 368Q59 488 98 574T211 706T385 752Q484 752 556 707T668 575T708 369Q708 250 669 165T557 35T384 -10Q283 -10 210 34ZM485 79T533 149T582 368Q582 519 533 591T385 664Q285
664 235 592T185 368Q185 220 234 150T385 79Q485 79 533 149Z" />
<glyph unicode="P" glyph-name="P" horiz-adv-x="698" d="M649 414T577 358T383 302H219Q209 302 209 292V17Q209 0 191 0H104Q88 0 88 15V727Q88 735 91 738T102 742H369Q495 742 572 687T649 521Q649 414 577 358ZM525 653T362 653H224Q216 653 213 650T209
639V406Q209 391 220 391H369Q442 391 483 424T525 524Q525 653 362 653Z" />
<glyph unicode="Q" glyph-name="Q" horiz-adv-x="768" d="M59 489T98 575T211 707T384 752Q484 752 557 707T669 576T709 369Q709 147 576 50Q571 48 571 42Q571 30 588 14T634 -17T692 -35Q703 -36 703 -46V-104Q703 -116 697 -120T673 -124Q562 -124 476 -7Q471
0 461 -3Q426 -10 384 -10Q284 -10 211 34T99 163T59 369Q59 489 98 575ZM185 219T234 149T384 79Q485 79 534 149T583 368Q583 517 534 590T384 664Q283 664 234 591T185 367Q185 219 234 149Z" />
<glyph unicode="R" glyph-name="R" horiz-adv-x="704" d="M643 15T643 13Q643 8 639 4T629 0H532Q520 0 514 14L392 318Q388 330 367 330H221Q209 330 209 319V18Q209 8 205 4T190 0H105Q96 0 92 4T88 16V727Q88 735 91 738T102 742H391Q515 742 583 692T651 546Q651
469 610 420T507 352Q501 350 503 340L641 21Q643 15 643 13ZM447 415T486 445T526 537Q526 597 490 627T384 657H225Q216 657 213 655T209 645V429Q209 415 220 415H367Q447 415 486 445Z" />
<glyph unicode="S" glyph-name="S" horiz-adv-x="652" d="M469 625T430 644T335 663Q264 663 225 634T185 552Q185 483 283 450L433 403Q603 350 603 203Q603 104 530 47T328 -10Q233 -10 160 23T47 117Q43 125 43 127Q43 135 53 142L102 176Q111 182 118 182Q125
182 130 175Q171 122 211 100T321 78Q399 78 443 105T487 189Q487 225 465 249T383 295L232 344Q151 371 111 423T70 539Q70 602 103 650T195 725T333 752Q410 752 472 725T575 651Q580 646 580 640Q580 634 575 630L518 586Q514 583 510 583Q507 583 498 592Q469
625 430 644Z" />
<glyph unicode="T" glyph-name="T" horiz-adv-x="656" d="M39 728Q39 742 54 742H603Q617 742 617 728V664Q617 652 603 652H405Q399 652 397 650T395 643V15Q395 0 381 0H287Q274 0 274 14V641Q274 648 272 650T263 652H53Q39 652 39 664V728Z" />
<glyph unicode="U" glyph-name="U" horiz-adv-x="713" d="M633 117T563 54T356 -10Q211 -10 145 59T79 273V726Q79 742 92 742H187Q200 742 200 727V252Q200 80 365 80Q533 80 533 255V727Q533 742 545 742H621Q633 742 633 728V256Q633 117 563 54Z" />
<glyph unicode="V" glyph-name="V" horiz-adv-x="715" d="M669 742T672 737T674 725L424 17Q421 8 415 4T399 0H314Q293 0 287 16L42 724Q41 726 41 730Q41 735 44 738T54 742H148Q162 742 165 729L360 154Q363 146 366 146Q370 146 374 155L568 729Q572 742 586
742H662Q669 742 672 737Z" />
<glyph unicode="W" glyph-name="W" horiz-adv-x="1057" d="M1008 742T1012 736T1014 720L809 17Q806 8 801 4T785 0H709Q688 0 684 16L534 542Q533 549 530 549Q529 549 526 541L374 17Q372 8 367 4T350 0H272Q253 0 247 16L44 720Q43 723 43 727Q43 742 61 742H144Q153
742 157 739T164 729L317 186Q320 175 323 175Q326 175 329 185L483 729Q487 742 504 742H576Q586 742 590 739T596 729L750 182Q753 174 756 174Q760 174 762 182L915 729Q918 742 935 742H998Q1008 742 1012 736Z" />
<glyph unicode="X" glyph-name="X" horiz-adv-x="701" d="M661 14T661 9Q661 0 645 0H550Q535 0 528 11L354 278Q348 289 342 289Q338 289 330 277L158 11Q151 0 135 0H56Q41 0 41 9Q41 16 48 27L272 364Q277 372 277 377Q277 384 271 391L52 723Q49 728 49 732Q49
742 60 742H161Q170 742 174 740T183 731L342 484Q346 477 351 477Q357 477 361 484L520 731Q523 737 527 739T541 742H629Q639 742 639 735Q639 731 635 725L420 402Q416 397 416 390Q416 385 420 378L653 27Q661 14 661 9Z" />
<glyph unicode="Y" glyph-name="Y" horiz-adv-x="694" d="M652 742T655 738T654 726L417 332Q413 325 412 318T410 293V20Q410 9 405 5T388 0H307Q290 0 290 17V292Q290 302 288 307T281 322L41 723Q38 728 38 732Q38 742 53 742H149Q159 742 163 739T173 728L347
427Q353 416 358 416Q364 416 368 425L541 728Q545 737 549 739T564 742H644Q652 742 655 738Z" />
<glyph unicode="Z" glyph-name="Z" horiz-adv-x="647" d="M50 0T47 3T43 14V42Q43 51 45 56T56 73L430 640Q432 644 432 646Q432 650 424 650H76Q69 650 66 653T63 664V730Q63 742 73 742H590Q601 742 601 730V699Q601 692 599 687T591 675L210 102L208 97Q208
95 210 94T216 92H586Q599 92 599 81V13Q599 0 585 0H58Q50 0 47 3Z" />
<glyph unicode="[" glyph-name="bracketleft" horiz-adv-x="296" d="M81 736T84 739T97 742H271Q281 742 281 734V685Q281 676 271 676H187Q173 676 173 660L172 -87Q172 -94 174 -96T184 -99H268Q280 -99 280 -110V-153Q280 -160 278 -162T268 -165H99Q82 -165
82 -150L81 729Q81 736 84 739Z" />
<glyph unicode="\" glyph-name="backslash" horiz-adv-x="349" d="M261 -35T256 -20L11 723Q9 731 9 733Q9 742 21 742H72Q85 742 88 731L338 -24L339 -28Q339 -35 329 -35H277Q261 -35 256 -20Z" />
<glyph unicode="]" glyph-name="bracketright" horiz-adv-x="296" d="M214 -150Q214 -165 197 -165H28Q21 -165 19 -163T16 -153V-110Q16 -99 28 -99H112Q119 -99 121 -97T124 -87L123 660Q123 676 109 676H25Q15 676 15 685V734Q15 742 25 742H199Q208 742 211
739T215 729L214 -150Z" />
<glyph unicode="^" glyph-name="asciicircum" horiz-adv-x="476" d="M244 403Q241 410 236 410Q232 410 229 403L123 139Q121 134 117 133T106 131H54Q45 131 45 139Q45 144 47 147L194 504Q201 521 212 530T237 540Q249 540 260 531T279 504L428 144Q430 138
430 137Q430 130 418 130H368Q353 130 350 138L244 403Z" />
<glyph unicode="_" glyph-name="underscore" horiz-adv-x="526" d="M469 -109Q469 -118 465 -121T449 -125L73 -126Q64 -126 61 -123T58 -112V-58Q58 -45 68 -45L457 -44Q462 -44 465 -47T469 -56V-109Z" />
<glyph unicode="`" glyph-name="grave" horiz-adv-x="292" d="M30 749T34 751T43 751L275 654Q280 652 281 648T280 638L271 612Q269 605 265 603T253 603L23 672Q14 675 12 679T11 692L29 744Q30 749 34 751Z" />
<glyph unicode="a" glyph-name="a" horiz-adv-x="552" d="M300 -10T202 -10Q125 -10 81 29T36 135Q36 216 106 264T307 318L372 323Q388 325 388 338V363Q388 412 358 440T276 469Q194 469 145 395Q142 389 139 388T128 388L60 408Q54 410 54 416Q54 420 57 427Q85
481 142 510T281 540Q386 540 438 495T490 370V17Q490 7 487 4T475 0H408Q394 0 392 20L390 58Q388 66 384 66Q381 66 373 60Q300 -10 202 -10ZM388 265T374 264L320 260Q237 255 189 227T140 148Q140 109 168 87T243 64Q297 64 345 101Q388 136 388 171V249Q388
265 374 264Z" />
<glyph unicode="b" glyph-name="b" horiz-adv-x="602" d="M88 0Q78 0 74 4T70 18V727Q70 742 84 742H164Q176 742 176 727V485Q176 474 181 474Q185 474 192 479Q256 540 345 540Q449 540 503 465T558 268Q558 139 498 65T330 -10Q273 -10 233 14T169 69Q164 74
162 74Q160 74 158 66L150 17Q148 8 144 4T130 0H88ZM176 180Q176 147 194 120T243 77T306 61Q371 61 410 112T449 266Q449 364 414 415T311 467Q271 467 237 449T176 400V180Z" />
<glyph unicode="c" glyph-name="c" horiz-adv-x="545" d="M375 540T429 503T510 407Q512 403 512 398Q512 392 503 390L432 378H429Q423 378 419 386Q391 427 365 446T302 466Q232 466 191 413T150 265Q150 169 192 116T306 63Q351 63 383 86T444 155Q447 159
450 160T458 159L511 143Q520 140 515 128Q487 69 433 30T297 -10Q223 -10 165 24T75 121T42 263Q42 343 75 406T166 504T297 540Q375 540 429 503Z" />
<glyph unicode="d" glyph-name="d" horiz-adv-x="602" d="M428 0T428 16V54Q428 63 423 63Q420 63 415 58Q385 29 350 10T261 -10Q198 -10 149 20T71 111T43 258Q43 341 72 405T154 504T272 540Q315 540 348 526T410 487Q415 482 420 482Q426 482 426 494V727Q426
742 439 742H519Q525 742 528 738T532 727V17Q532 8 528 4T513 0H444Q428 0 428 16ZM396 437T367 452T303 467Q235 467 193 414T151 261Q151 161 192 112T298 62Q333 62 362 78T408 120T426 172V406Q396 437 367 452Z" />
<glyph unicode="e" glyph-name="e" d="M151 183T172 147T231 89T312 67Q358 67 394 86T460 145Q463 149 467 149Q472 149 475 147L526 123Q531 120 531 115Q531 112 528 107Q486 45 432 18T301 -10Q226 -10 167 24T75 119T42 259Q42 343 76 407T168 505T299 540Q373
540 429 508T515 413T546 266V262Q546 253 544 249T531 244H161Q151 244 151 228Q151 183 172 147ZM424 307Q434 307 437 310T441 321Q441 360 425 394T377 448T302 469Q257 469 223 447T171 388T153 308L424 307Z" />
<glyph unicode="f" glyph-name="f" horiz-adv-x="386" d="M364 530T364 517V465Q364 454 351 454H247Q238 454 238 445V16Q238 0 225 0H144Q132 0 132 14V446Q132 454 125 454H35Q23 454 23 465V517Q23 530 36 530H122Q128 530 130 532T132 542V611Q132 674 165
708T264 742H353Q368 742 368 727L369 680Q369 675 366 672T356 668H292Q264 668 250 650T236 600V539Q236 530 246 530H350Q364 530 364 517Z" />
<glyph unicode="g" glyph-name="g" horiz-adv-x="611" d="M586 543T586 525V480Q586 460 569 460Q553 460 539 459T515 455Q502 451 498 446T495 432Q496 429 502 412T509 371Q509 300 452 255T285 209Q219 209 189 198T159 169Q159 154 178 148T242 139L375 131Q465
126 509 89T554 -10Q554 -87 485 -131T288 -175Q156 -175 88 -140T19 -38Q19 -4 43 22T113 69Q125 75 113 80Q63 103 63 144Q63 168 85 189T148 224Q154 226 154 229Q154 233 148 236Q103 259 81 292T59 371Q59 449 120 493T294 538Q392 538 447 493Q454 488 458
488Q464 488 470 494Q489 514 516 528T567 543Q586 543 586 525ZM348 269T379 295T411 371Q411 421 379 449T285 477Q224 477 190 449T156 371Q156 323 189 296T285 269Q348 269 379 295ZM201 54Q182 55 161 45T125 17T110 -25Q110 -116 298 -116Q376 -116 417
-94T458 -26Q458 39 364 45L201 54Z" />
<glyph unicode="h" glyph-name="h" horiz-adv-x="588" d="M78 0T75 4T71 16V727Q71 742 83 742H162Q174 742 174 729V465Q174 453 184 462Q237 504 277 522T364 540Q441 540 482 499T523 386V18Q523 0 506 0H432Q417 0 417 16V366Q417 411 394 435T324 460Q285
460 254 443T177 385V17Q177 0 158 0H87Q78 0 75 4Z" />
<glyph unicode="i" glyph-name="i" horiz-adv-x="247" d="M179 636Q179 625 175 620T159 615H85Q75 615 71 619T67 634V725Q67 742 82 742H165Q171 742 175 738T179 726V636ZM176 19Q176 8 172 4T156 0H88Q78 0 74 3T70 16V515Q70 523 73 526T84 530H164Q176 530
176 516V19Z" />
<glyph unicode="j" glyph-name="j" horiz-adv-x="247" d="M180 636Q180 625 176 620T159 615H85Q68 615 68 634V725Q68 742 83 742H165Q172 742 176 738T180 726V636ZM177 -97T142 -133T24 -170Q-1 -170 -17 -169T-37 -165T-42 -154L-43 -100Q-43 -88 -31 -85L17
-82Q46 -80 58 -65T71 -12V515Q71 530 85 530H165Q177 530 177 516V-18Q177 -97 142 -133Z" />
<glyph unicode="k" glyph-name="k" horiz-adv-x="576" d="M552 16T552 10Q552 0 539 0H450Q436 0 430 15L293 257Q290 263 287 263Q284 263 280 259L185 164Q177 157 177 143V19Q177 8 173 4T157 0H88Q78 0 75 3T71 16V727Q71 742 84 742H164Q177 742 177 727V280Q177
271 181 271Q183 271 188 276L416 517Q429 530 439 530H514Q528 530 528 522Q528 516 521 509L369 354Q364 349 364 344Q364 341 367 333L550 19Q552 16 552 10Z" />
<glyph unicode="l" glyph-name="l" horiz-adv-x="248" d="M177 19Q177 8 173 4T156 0H88Q78 0 74 3T70 16L72 727Q72 742 85 742H164Q177 742 177 727V19Z" />
<glyph unicode="m" glyph-name="m" horiz-adv-x="910" d="M70 0T70 16V515Q70 530 83 530H161Q173 530 173 517V462Q173 456 176 455T183 459Q233 501 272 520T358 540Q413 540 449 515T500 450Q502 447 504 447Q508 447 513 452Q560 495 603 517T693 540Q765
540 805 499T846 385V18Q846 0 828 0H754Q746 0 743 3T740 16V366Q740 411 718 435T652 460Q592 460 524 397Q517 390 514 384T511 368V18Q511 0 493 0H420Q405 0 405 16V366Q405 411 384 435T317 460Q281 460 250 443T176 385V17Q176 8 172 4T157 0H86Q70 0 70
16Z" />
<glyph unicode="n" glyph-name="n" horiz-adv-x="588" d="M70 0T70 16V515Q70 530 83 530H162Q174 530 174 517V462Q174 456 176 455T184 459Q236 501 276 520T363 540Q438 540 480 499T523 387V18Q523 0 506 0H432Q417 0 417 16V366Q417 411 394 435T323 460Q285
460 253 443T176 385V17Q176 8 172 4T157 0H86Q70 0 70 16Z" />
<glyph unicode="o" glyph-name="o" horiz-adv-x="599" d="M223 -10T165 24T74 121T42 262Q42 343 75 406T166 505T300 540Q376 540 434 505T525 406T557 263Q557 184 525 122T434 25T299 -10Q223 -10 165 24ZM371 65T410 117T449 265Q449 360 410 413T300 467Q230
467 190 414T150 265Q150 171 190 118T301 65Q371 65 410 117Z" />
<glyph unicode="p" glyph-name="p" horiz-adv-x="601" d="M176 530T176 514V475Q176 467 180 467Q182 467 189 472Q219 502 252 521T342 540Q404 540 452 510T529 420T557 272Q557 182 529 119T450 23T332 -10Q251 -10 193 40Q185 47 181 47Q176 47 176 34V-151Q176
-165 164 -165H83Q70 -165 70 -151V512Q70 522 74 526T89 530H159Q176 530 176 514ZM205 93T234 78T299 62Q368 62 408 115T449 272Q449 372 409 420T304 468Q268 468 239 453T193 413T176 364V123Q205 93 234 78Z" />
<glyph unicode="q" glyph-name="q" horiz-adv-x="602" d="M515 530Q525 530 528 526T532 512V-150Q532 -165 519 -165H438Q426 -165 426 -150V32Q426 46 421 46Q418 46 410 40Q381 18 345 4T267 -10Q163 -10 104 64T44 266Q44 391 104 465T271 540Q334 540 371
519T436 466Q440 462 443 462Q447 462 448 469L456 512Q458 522 462 526T476 530H515ZM426 349Q426 381 410 409T364 454T298 471Q233 471 193 420T152 267Q152 167 191 115T298 62Q335 62 368 77T426 121V349Z" />
<glyph unicode="r" glyph-name="r" horiz-adv-x="396" d="M70 0T70 16V515Q70 530 83 530H160Q172 530 172 517V454Q172 448 175 447T183 451Q220 494 259 517T337 540Q372 540 372 526V448Q372 436 361 438Q342 443 308 443Q280 443 249 428T197 387T176 336V17Q176
0 157 0H86Q70 0 70 16Z" />
<glyph unicode="s" glyph-name="s" horiz-adv-x="518" d="M370 435T336 452T257 470Q207 470 175 450T143 394Q143 374 159 358T217 330L340 295Q410 277 443 240T477 151Q477 103 449 67T369 10T254 -10Q174 -10 113 20T26 100Q23 105 23 109Q23 115 28 118L77
144Q83 147 87 147Q92 147 95 143Q148 63 252 63Q307 63 343 83T379 139Q379 164 359 181T291 211L189 237Q115 255 81 290T47 378Q47 426 73 462T147 519T258 540Q326 540 380 514T461 446Q465 440 465 436Q465 432 460 429L408 402Q406 401 402 401Q396 401 391
406Q370 435 336 452Z" />
<glyph unicode="t" glyph-name="t" horiz-adv-x="401" d="M236 454Q227 454 227 444V151Q227 109 242 93T292 77H356Q368 77 368 65V22Q368 8 353 5Q321 0 251 0Q185 0 153 30T121 125V442Q121 454 111 454H36Q23 454 23 466V519Q23 530 35 530H115Q123 530 123
539L135 696Q137 710 147 710H216Q229 710 229 694V539Q229 530 238 530H358Q370 530 370 519V466Q370 454 356 454H236Z" />
<glyph unicode="u" glyph-name="u" horiz-adv-x="583" d="M331 70T407 149V513Q407 530 426 530H498Q514 530 514 514L512 14Q512 0 500 0H422Q410 0 410 13V69Q410 81 400 72Q351 27 309 9T221 -10Q152 -10 108 32T64 145V512Q64 530 82 530H155Q170 530 170
514V167Q170 123 195 97T262 70Q331 70 407 149Z" />
<glyph unicode="v" glyph-name="v" horiz-adv-x="555" d="M525 530T528 525T529 513L327 17Q321 0 301 0H254Q234 0 227 16L26 512Q25 514 25 517Q25 523 29 526T39 530H122Q136 530 139 517L283 155Q286 145 290 145Q294 145 299 156L441 518Q448 530 459 530H518Q525
530 528 525Z" />
<glyph unicode="w" glyph-name="w" horiz-adv-x="803" d="M770 530T773 525T774 513L618 14Q616 6 612 3T599 0H540Q521 0 517 15L409 358Q406 367 402 367Q399 367 396 358L291 14Q289 6 285 3T272 0H210Q192 0 188 15L29 512Q28 514 28 517Q28 522 31 526T41
530H119Q132 530 137 517L247 161Q250 152 254 152Q258 152 261 162L369 518Q372 530 386 530H444Q458 530 461 517L573 161Q576 152 580 152Q584 152 587 162L693 518Q698 530 712 530H763Q770 530 773 525Z" />
<glyph unicode="x" glyph-name="x" horiz-adv-x="559" d="M535 13T535 7Q535 0 521 0H433Q416 0 408 11L279 190Q273 199 269 199Q267 199 259 190L125 11Q119 0 101 0H43Q26 0 26 10Q26 18 34 29L211 254Q216 262 216 266Q216 272 210 279L40 510Q37 515 37 518Q37
530 51 530H134Q143 530 148 528T158 519L280 352Q284 346 288 346Q292 346 295 352L413 519Q417 525 422 527T437 530H501Q513 530 513 522Q513 519 509 513L346 295Q341 289 341 283Q341 278 346 270L526 25Q535 13 535 7Z" />
<glyph unicode="y" glyph-name="y" horiz-adv-x="541" d="M72 -165T59 -163T45 -150V-99Q45 -85 73 -85H138Q160 -85 179 -70T210 -32T221 13Q221 26 217 35L26 511Q25 513 25 518Q25 530 39 530H121Q127 530 132 527T138 517L276 157Q279 148 283 148Q289 148
293 160L429 518Q434 530 445 530H504Q511 530 514 525T515 513L300 -32Q279 -86 253 -114T193 -154T106 -165Q72 -165 59 -163Z" />
<glyph unicode="z" glyph-name="z" horiz-adv-x="493" d="M35 0T32 3T29 14V47Q29 56 31 62T42 79L319 448L322 454Q322 459 313 459H64Q56 459 54 462T51 473V518Q51 530 62 530H446Q457 530 457 519V483Q457 470 446 453L167 84Q164 80 164 77Q164 72 172 72H448Q461
72 461 60V14Q461 0 446 0H43Q35 0 32 3Z" />
<glyph unicode="{" glyph-name="braceleft" horiz-adv-x="324" d="M116 683T155 712T254 742H299Q305 742 307 741T309 734V685Q309 676 299 676H271Q234 676 221 663T207 623V408Q206 355 177 327T105 294Q99 293 99 291T105 287Q148 283 177 257T207 172V-45Q207
-74 221 -86T272 -99H297Q309 -99 309 -110V-153Q309 -160 307 -162T297 -165H256Q194 -165 155 -136T116 -55V164Q116 203 88 231T7 260Q0 260 0 272V310Q0 322 7 322Q62 322 89 348T116 421V633Q116 683 155 712Z" />
<glyph unicode="|" glyph-name="bar" horiz-adv-x="258" d="M105 -165Q96 -165 93 -161T89 -148L88 832Q88 847 102 847H155Q170 847 170 833V-153Q170 -165 157 -165H105Z" />
<glyph unicode="}" glyph-name="braceright" horiz-adv-x="324" d="M208 421Q208 374 235 348T317 322Q324 322 324 310V272Q324 260 317 260Q265 260 237 232T208 164V-55Q208 -106 169 -135T68 -165H27Q20 -165 18 -163T15 -153V-110Q15 -99 27 -99H52Q89 -99
103 -87T117 -45V172Q118 230 147 256T219 287Q226 288 226 290T219 294Q177 298 148 326T117 408V623Q117 650 104 663T53 676H25Q15 676 15 685V734Q15 739 17 740T25 742H70Q129 742 168 713T208 633V421Z" />
<glyph unicode="~" glyph-name="asciitilde" horiz-adv-x="581" d="M498 344T465 328T390 311Q362 311 340 318T286 340Q258 353 240 359T200 366Q167 366 144 353T95 314Q92 310 88 310Q85 310 82 315L60 355Q58 359 58 361Q58 367 65 371Q99 404 129 420T199
437Q226 437 248 430T301 408Q330 395 348 389T389 382Q444 382 483 429Q488 435 492 435Q496 435 501 427L520 392Q522 388 522 385Q522 379 517 372Q498 344 465 328Z" />
<glyph unicode="&#xa0;" glyph-name="uni00A0" horiz-adv-x="213" />
<glyph unicode="&#xa1;" glyph-name="exclamdown" horiz-adv-x="251" d="M187 402T175 402H76Q64 402 64 417V514Q64 523 68 526T81 530H166Q178 530 182 526T187 512V415Q187 402 175 402ZM188 -155Q188 -159 185 -162T177 -165H75Q63 -165 64 -151L91 319Q92
327 94 330T106 333H143Q153 333 157 330T162 317L188 -153V-155Z" />
<glyph unicode="&#xa2;" glyph-name="cent" horiz-adv-x="558" d="M520 251T515 239Q490 187 444 149T331 103V20Q331 0 311 0H274Q264 0 260 4T256 18V104Q192 113 144 149T69 243T42 374Q42 447 69 506T144 602T256 648V725Q256 734 260 738T274 742H316Q331
742 331 727V649Q395 641 440 605T510 518Q512 514 512 509Q512 503 503 501L432 489H429Q423 489 419 497Q391 538 365 557T302 577Q232 577 191 524T150 376Q150 280 192 227T306 174Q351 174 383 197T444 266Q447 270 450 271T458 270L511 254Q520 251 515 239Z"
/>
<glyph unicode="&#xa3;" glyph-name="sterling" horiz-adv-x="625" d="M12 0T12 13V80Q12 90 22 90H50Q91 90 116 123T142 223Q142 256 131 344Q130 352 123 352H34Q26 352 26 361V408Q26 417 34 417H108Q118 417 117 426L104 503Q99 531 99 553Q99 614 129 659T209
728T318 752Q386 752 446 720T530 633Q531 632 531 629Q531 623 521 620L451 598Q449 597 445 597Q438 597 435 602Q405 663 332 663Q283 663 251 634T218 554Q218 500 239 426Q241 417 248 417H395Q403 417 403 410V361Q403 352 395 352H260Q250 352 251 344Q256
304 256 276Q256 263 254 237Q249 148 205 101Q195 91 208 91H365Q414 91 444 108T490 163Q493 174 506 171L569 155Q584 152 580 140Q558 72 504 36T371 0H24Q12 0 12 13Z" />
<glyph unicode="&#xa4;" glyph-name="currency" horiz-adv-x="549" d="M215 172T166 204Q160 206 159 206Q155 206 152 202L105 155Q101 151 96 151Q90 151 85 156L55 187Q51 191 51 196Q51 201 55 205L102 252Q105 257 105 260Q105 265 102 269Q73 316 73 373Q73
432 104 480Q108 489 103 494L56 541Q52 545 52 550Q52 556 56 560L87 591Q91 596 96 596Q101 596 105 591L153 544Q157 540 159 540Q162 540 167 543Q216 574 273 574Q332 574 382 541Q390 538 394 542L443 592Q450 597 455 592L492 553Q498 547 492 541L443 492Q438
487 442 481Q474 431 474 373Q474 311 442 265Q439 258 442 255L492 205Q498 199 493 193L456 155Q450 149 444 155L395 204Q389 209 384 206Q332 172 275 172Q215 172 166 204ZM309 249T337 266T382 311T399 373Q399 406 383 434T338 480T275 497Q240 497 212
480T168 435T151 373Q151 340 167 312T212 266T275 249Q309 249 337 266Z" />
<glyph unicode="&#xa5;" glyph-name="yen" horiz-adv-x="624" d="M618 742T621 738T620 726L391 349H522Q533 349 533 337V301Q533 292 529 289T514 285H377V197H522Q533 197 533 185V149Q533 140 529 137T514 133H377V20Q377 9 372 5T355 0H274Q257 0 257 17V132H116Q107
132 104 135T101 146V182Q101 196 112 196H257V284H116Q107 284 104 287T101 299V335Q101 348 112 348H233L9 723Q6 728 6 732Q6 742 21 742H120Q130 742 134 740T144 728L317 426Q318 425 320 421T326 416Q330 416 334 425L509 728Q513 737 517 739T533 742H610Q618
742 621 738Z" />
<glyph unicode="&#xa6;" glyph-name="brokenbar" horiz-adv-x="258" d="M105 435Q96 435 93 439T89 451L88 832Q88 847 102 847H155Q170 847 170 833V447Q170 435 157 435H105ZM105 -165Q96 -165 93 -161T89 -148L88 232Q88 247 102 247H155Q170 247 170 234V-153Q170
-165 157 -165H105Z" />
<glyph unicode="&#xa7;" glyph-name="section" horiz-adv-x="494" d="M415 181T437 150T460 78Q460 10 405 -32T254 -75Q181 -75 122 -46T37 30Q29 45 37 47L89 74Q93 76 96 76Q101 76 106 70Q131 36 168 16T254 -4Q303 -4 333 14T363 66Q363 92 342 113T268 155L181
188Q108 216 75 252T42 341Q42 387 69 421T141 475Q87 504 67 535T46 605Q46 646 70 679T139 732T242 752Q307 752 358 725T436 658Q439 652 439 648Q439 645 435 641L385 615Q381 613 378 613Q372 613 366 619Q315 681 247 681Q199 681 172 663T144 615Q144 593
160 575T221 538L303 506Q384 473 420 434T456 340Q456 255 367 208Q415 181 437 150ZM315 244T340 266T365 321Q365 352 348 374T279 417L226 438Q186 434 160 410T133 356Q133 328 150 310T220 271L279 247Q315 244 340 266Z" />
<glyph unicode="&#xa8;" glyph-name="dieresis" horiz-adv-x="284" d="M110 642Q110 633 106 629T91 625H26Q17 625 14 628T10 640V728Q10 742 22 742H98Q110 742 110 729V642ZM274 642Q274 633 270 629T255 625H190Q181 625 178 628T174 640V728Q174 742 186
742H262Q274 742 274 729V642Z" />
<glyph unicode="&#xa9;" glyph-name="copyright" horiz-adv-x="830" d="M311 -10T224 41T85 179T34 371Q34 474 85 561T223 700T415 752Q518 752 605 701T744 562T796 371Q796 267 745 180T606 41T415 -10Q311 -10 224 41ZM501 58T571 97T682 207T723 371Q723
463 682 534T571 645T415 685Q328 685 258 646T147 535T107 371Q107 278 147 207T257 97T415 58Q501 58 571 97ZM477 588T519 558T585 480Q586 478 586 475Q586 470 579 468L519 456H517Q511 456 509 463Q493 493 472 509T421 525Q371 525 340 485T309 374Q309
302 340 262T425 222Q491 222 530 294Q533 299 542 296L583 283Q587 282 588 280T587 271Q565 225 522 193T417 160Q360 160 315 186T245 261T220 372Q220 435 245 484T316 560T417 588Q477 588 519 558Z" />
<glyph unicode="&#xaa;" glyph-name="ordfeminine" horiz-adv-x="398" d="M326 750T326 640V473Q326 458 327 448T334 424Q335 423 335 420Q335 412 318 412H273Q263 412 261 422L257 446Q255 451 253 451Q250 451 245 447Q219 425 197 416T145 406Q94 406 65
431T36 499Q36 598 204 612L245 616Q256 616 256 625V639Q256 699 187 699Q161 699 143 690T110 658Q108 654 106 654T99 654L51 666Q49 667 48 671T49 679Q68 714 102 732T191 750Q326 750 326 640ZM108 482T125 469T172 456Q207 456 235 479Q256 498 256 518V561Q256
567 254 570T245 572L210 568Q162 564 135 548T108 503Q108 482 125 469Z" />
<glyph unicode="&#xab;" glyph-name="guillemotleft" horiz-adv-x="459" d="M224 79Q225 78 225 76Q225 71 213 71H176Q168 71 165 77L46 244Q41 252 41 257Q41 261 45 269L165 446Q168 450 171 451T177 452H216Q228 452 224 441L133 266Q131 260 131 256Q131
254 133 248L224 79ZM408 79Q409 78 409 76Q409 71 397 71H360Q352 71 349 77L230 244Q225 252 225 257Q225 261 229 269L349 446Q352 450 354 451T360 452H400Q412 452 408 441L317 266Q315 260 315 256Q315 254 317 248L408 79Z" />
<glyph unicode="&#xac;" glyph-name="logicalnot" horiz-adv-x="565" d="M509 413T509 402V199Q509 191 505 188T492 184H435Q427 184 424 187T421 196L420 333L73 332Q64 332 61 335T58 347V399Q58 413 68 413H497Q509 413 509 402Z" />
<glyph unicode="&#xad;" glyph-name="uni00AD" horiz-adv-x="381" d="M323 240Q323 224 303 224H73Q65 224 62 227T58 238V291Q58 305 69 305H311Q323 305 323 294V240Z" />
<glyph unicode="&#xae;" glyph-name="registered" horiz-adv-x="545" d="M208 275T153 307T66 393T34 513Q34 578 66 633T153 720T273 752Q337 752 392 720T479 633T511 513Q511 448 479 394T393 307T273 275Q208 275 153 307ZM356 325T407 376T458 513Q458 569
435 612T369 678T273 702Q190 702 139 650T87 513Q87 427 138 376T273 325Q356 325 407 376ZM367 398T366 396T361 393H322Q318 393 316 398L280 497Q279 498 278 499T271 501H231Q227 501 227 497V399Q227 393 221 393H185Q180 393 180 398V625Q180 630 184 630H288Q327
630 349 614T371 569Q371 523 325 507Q324 507 324 506T324 503L366 400Q367 398 366 396ZM322 537T322 565Q322 594 280 594H232Q231 594 230 594T228 593T227 590V541Q227 537 231 537H282Q322 537 322 565Z" />
<glyph unicode="&#xaf;" glyph-name="overscore" horiz-adv-x="338" d="M328 672Q328 657 310 657H23Q10 657 10 671V718Q10 730 20 730H318Q328 730 328 719V672Z" />
<glyph unicode="&#xb0;" glyph-name="degree" horiz-adv-x="464" d="M395 647T374 610T315 552T232 531Q186 531 149 552T90 610T69 694Q69 741 90 778T148 837T232 858Q278 858 315 837T373 779T395 694Q395 647 374 610ZM324 736T299 763T230 790Q188 790 163
764T137 695Q137 651 162 624T231 596Q273 596 298 623T324 693Q324 736 299 763Z" />
<glyph unicode="&#xb1;" glyph-name="plusminus" horiz-adv-x="565" d="M502 494T505 491T509 482V430Q509 413 489 413H323V240Q323 228 311 228H260Q243 228 243 247V413H73Q64 413 61 416T58 427V480Q58 493 68 493H243V663Q243 672 246 675T257 679H310Q323
679 323 668V494H497Q502 494 505 491ZM509 136T509 124V72Q509 63 505 60T489 56L73 55Q64 55 61 58T58 69V122Q58 135 68 135L497 136Q509 136 509 124Z" />
<glyph unicode="&#xb2;" glyph-name="uni00B2" horiz-adv-x="452" d="M196 582Q252 632 272 662T292 724Q292 759 267 779T206 800Q178 800 151 785T104 736Q101 729 90 734L53 754Q44 762 50 771Q79 815 120 836T212 857Q279 857 322 822T366 722Q366 683 344
649T268 565L144 455Q140 452 141 450T148 448H361Q371 448 371 439V393Q371 384 361 384H58Q51 384 49 386T46 395V428Q46 435 50 440T67 457L196 582Z" />
<glyph unicode="&#xb3;" glyph-name="uni00B3" horiz-adv-x="467" d="M70 789T74 794Q101 825 140 841T225 857Q300 857 344 824T388 737Q388 704 367 677T310 637Q303 634 303 632Q303 629 310 628Q350 616 376 586T402 515Q402 452 355 415T217 378Q167 378
125 396T54 448Q52 452 52 454Q52 459 57 461L91 487Q95 490 97 490T102 487Q130 458 157 446T222 434Q271 434 299 455T327 513Q327 552 296 575T219 598L164 599Q155 599 155 606V647Q155 652 164 654L208 655Q254 656 284 678T314 734Q314 763 289 782T225 802Q165
802 116 754Q112 750 110 750T103 754L74 783Q70 789 74 794Z" />
<glyph unicode="&#xb4;" glyph-name="acute" horiz-adv-x="292" d="M280 692Q282 686 282 685Q282 677 268 672L39 603Q36 602 32 602Q24 602 21 612L11 638Q10 640 10 644Q10 653 16 654L249 751L253 752Q260 752 263 744L280 692Z" />
<glyph unicode="&#xb6;" glyph-name="paragraph" horiz-adv-x="574" d="M455 678Q447 678 447 670V-75Q447 -85 439 -85H389Q379 -85 379 -75V671Q379 674 377 676T370 678H333Q326 678 326 670V-75Q326 -85 316 -85H266Q256 -85 256 -75V300Q256 306 250 306Q188
308 141 336T68 411T42 519Q42 579 69 629T149 711T278 742H501Q510 742 510 734V685Q510 681 508 680T501 678H455Z" />
<glyph unicode="&#xb7;" glyph-name="middot" horiz-adv-x="216" d="M169 331Q169 321 165 317T150 313H60Q51 313 48 316T45 328V420Q45 434 56 434H159Q169 434 169 422V331Z" />
<glyph unicode="&#xb8;" glyph-name="cedilla" horiz-adv-x="234" d="M224 -170T192 -191T110 -213Q54 -213 15 -190Q9 -187 10 -180L23 -151Q24 -149 26 -149T32 -149Q63 -169 97 -169Q152 -169 152 -132Q152 -111 132 -100T69 -88Q59 -88 63 -81L99 5H153L131
-50Q128 -56 135 -56Q181 -58 202 -80T224 -132Q224 -170 192 -191Z" />
<glyph unicode="&#xb9;" glyph-name="uni00B9" horiz-adv-x="367" d="M283 438T283 431V388Q283 380 273 380H44Q36 380 36 388V431Q36 438 44 438H119Q124 438 124 442V762Q124 766 123 767T117 767L45 742L42 741Q35 741 35 751V781Q35 786 37 788T42 793L139
841Q152 847 161 847H193Q200 847 200 838V444Q200 438 205 438H274Q283 438 283 431Z" />
<glyph unicode="&#xba;" glyph-name="ordmasculine" horiz-adv-x="407" d="M277 751T321 703T366 577Q366 502 322 455T203 407Q129 407 86 454T42 577Q42 655 87 703T203 751Q277 751 321 703ZM161 699T140 668T118 580Q118 522 139 491T203 460Q246 460 268
491T290 580Q290 637 268 668T203 699Q161 699 140 668Z" />
<glyph unicode="&#xbb;" glyph-name="guillemotright" horiz-adv-x="458" d="M143 251T143 257Q143 263 141 266L51 441Q50 443 50 446Q50 452 59 452H98Q101 452 103 451T109 446L230 269Q233 263 233 257Q233 251 229 244L110 77Q107 71 98 71H61Q47 71 50 79L141
248Q143 251 143 257ZM327 251T327 257Q327 263 325 266L235 441Q234 443 234 446Q234 452 243 452H282Q285 452 287 451T293 446L414 269Q418 261 418 257Q418 252 413 244L294 77Q291 71 282 71H245Q231 71 234 79L325 248Q327 251 327 257Z" />
<glyph unicode="&#xbc;" glyph-name="onequarter" horiz-adv-x="907" d="M249 334T249 327V284Q249 276 239 276H10Q2 276 2 284V327Q2 334 10 334H85Q90 334 90 338V658Q90 662 89 663T83 663L11 638L8 637Q1 637 1 647V677Q1 682 3 684T8 689L105 737Q118 743
127 743H159Q166 743 166 734V340Q166 334 171 334H240Q249 334 249 327ZM210 6Q207 0 203 -2T190 -4H159Q146 -4 146 7Q146 13 150 18L631 742Q634 747 638 748T649 750H688Q695 750 697 747T695 737L210 6ZM733 464T737 465T748 467H802Q810 467 810 458V181Q810
175 816 175H872Q882 175 882 167V130Q882 120 872 120H816Q810 120 810 114V11Q810 5 808 3T798 0H743Q733 0 733 10V116Q733 120 727 120H528Q517 120 517 130V168Q517 176 529 192L729 459Q733 464 737 465ZM727 175Q729 175 731 176T733 179V372Q733 380 730
380Q728 380 724 375L583 183Q577 175 587 175H727Z" />
<glyph unicode="&#xbd;" glyph-name="onehalf" horiz-adv-x="963" d="M249 334T249 327V284Q249 276 239 276H10Q2 276 2 284V327Q2 334 10 334H85Q90 334 90 338V658Q90 662 89 663T83 663L11 638L8 637Q1 637 1 647V677Q1 682 3 684T8 689L105 737Q118 743 127
743H159Q166 743 166 734V340Q166 334 171 334H240Q249 334 249 327ZM269 6Q266 0 262 -2T249 -4H218Q205 -4 205 7Q205 13 209 18L690 742Q693 747 697 748T708 750H747Q754 750 756 747T754 737L269 6ZM740 198Q796 248 816 278T836 340Q836 375 811 395T750
416Q722 416 695 401T648 352Q645 345 634 350L597 370Q588 378 594 387Q623 431 664 452T756 473Q823 473 866 438T910 338Q910 299 888 265T812 181L688 71Q684 68 685 66T692 64H905Q915 64 915 55V9Q915 0 905 0H602Q595 0 593 2T590 11V44Q590 51 594 56T611
73L740 198Z" />
<glyph unicode="&#xbe;" glyph-name="threequarters" horiz-adv-x="957" d="M36 684T40 689Q67 720 106 736T191 752Q266 752 310 719T354 632Q354 599 333 572T276 532Q269 529 269 527Q269 524 276 523Q316 511 342 481T368 410Q368 347 321 310T183 273Q133
273 91 291T20 343Q18 347 18 349Q18 354 23 356L57 382Q61 385 63 385T68 382Q96 353 123 341T188 329Q237 329 265 350T293 408Q293 447 262 470T185 493L130 494Q121 494 121 501V542Q121 547 130 549L174 550Q220 551 250 573T280 629Q280 658 255 677T191
697Q131 697 82 649Q78 645 76 645T69 649L40 678Q36 684 40 689ZM310 6Q307 0 303 -2T290 -4H259Q246 -4 246 7Q246 13 250 18L731 742Q734 747 738 748T749 750H788Q795 750 797 747T795 737L310 6ZM779 464T783 465T794 467H848Q856 467 856 458V181Q856 175
862 175H918Q928 175 928 167V130Q928 120 918 120H862Q856 120 856 114V11Q856 5 854 3T844 0H789Q779 0 779 10V116Q779 120 773 120H574Q563 120 563 130V168Q563 176 575 192L775 459Q779 464 783 465ZM773 175Q775 175 777 176T779 179V372Q779 380 776 380Q774
380 770 375L629 183Q623 175 633 175H773Z" />
<glyph unicode="&#xbf;" glyph-name="questiondown" horiz-adv-x="522" d="M213 512Q213 522 218 526T234 530H319Q329 530 332 527T336 514V417Q336 402 324 402H224Q213 402 213 415V512ZM499 -21T500 -25T499 -35Q467 -101 404 -138T257 -175Q185 -175 133
-153T54 -90T27 3Q27 40 41 68T75 117T129 164Q162 191 182 210T215 257T229 320Q229 326 233 330T244 335H303Q318 335 318 318Q318 273 303 239T267 182T212 129Q172 94 153 69T134 7Q134 -39 168 -67T258 -95Q304 -95 347 -70T408 -6Q410 -1 413 0T423 0L493
-19Q499 -21 500 -25Z" />
<glyph unicode="&#xc0;" glyph-name="Agrave" horiz-adv-x="741" d="M41 0T41 12L43 21L298 726Q301 735 306 738T320 742H421Q440 742 446 725L699 20Q700 18 700 13Q700 0 689 0H594Q581 0 577 12L513 190Q511 195 509 197T501 199H224Q215 199 212 191L147
10Q144 0 130 0H53Q41 0 41 12ZM470 293Q477 293 478 296T478 307L370 607Q367 614 363 614Q359 614 356 606L245 306L244 300Q244 293 253 293H470ZM243 961T247 963T256 963L488 866Q493 864 494 860T493 850L484 824Q482 817 478 815T466 815L236 884Q227 887
225 891T224 904L242 956Q243 961 247 963Z" />
<glyph unicode="&#xc1;" glyph-name="Aacute" horiz-adv-x="741" d="M41 0T41 12L43 21L298 726Q301 735 306 738T320 742H421Q440 742 446 725L699 20Q700 18 700 13Q700 0 689 0H594Q581 0 577 12L513 190Q511 195 509 197T501 199H224Q215 199 212 191L147
10Q144 0 130 0H53Q41 0 41 12ZM470 293Q477 293 478 296T478 307L370 607Q367 614 363 614Q359 614 356 606L245 306L244 300Q244 293 253 293H470ZM503 904Q505 898 505 897Q505 889 491 884L262 815Q259 814 255 814Q247 814 244 824L234 850Q233 852 233 856Q233
865 239 866L472 963L476 964Q483 964 486 956L503 904Z" />
<glyph unicode="&#xc2;" glyph-name="Acircumflex" horiz-adv-x="741" d="M41 0T41 12L43 21L298 726Q301 735 306 738T320 742H421Q440 742 446 725L699 20Q700 18 700 13Q700 0 689 0H594Q581 0 577 12L513 190Q511 195 509 197T501 199H224Q215 199 212 191L147
10Q144 0 130 0H53Q41 0 41 12ZM470 293Q477 293 478 296T478 307L370 607Q367 614 363 614Q359 614 356 606L245 306L244 300Q244 293 253 293H470ZM380 894Q371 903 368 903Q364 903 355 894L300 843Q294 838 291 837T280 836H218Q210 836 210 841Q210 844 215
849L320 947Q326 953 331 956T347 959H396Q403 959 408 956T417 948L521 849Q527 843 527 840Q527 836 519 836H452Q439 836 432 843L380 894Z" />
<glyph unicode="&#xc3;" glyph-name="Atilde" horiz-adv-x="741" d="M41 0T41 12L43 21L298 726Q301 735 306 738T320 742H421Q440 742 446 725L699 20Q700 18 700 13Q700 0 689 0H594Q581 0 577 12L513 190Q511 195 509 197T501 199H224Q215 199 212 191L147
10Q144 0 130 0H53Q41 0 41 12ZM470 293Q477 293 478 296T478 307L370 607Q367 614 363 614Q359 614 356 606L245 306L244 300Q244 293 253 293H470ZM483 859T438 859Q419 859 404 862T366 873Q351 878 335 881T304 885Q285 885 272 880T242 863Q238 860 234 860Q229
860 226 869L215 901Q214 904 214 908Q214 913 219 918Q238 934 256 942T300 950Q318 950 337 946T374 935Q380 933 400 928T438 922Q469 922 499 943Q503 946 508 946Q514 946 517 937L527 900Q528 898 528 894Q528 888 519 882Q483 859 438 859Z" />
<glyph unicode="&#xc4;" glyph-name="Adieresis" horiz-adv-x="741" d="M41 0T41 12L43 21L298 726Q301 735 306 738T320 742H421Q440 742 446 725L699 20Q700 18 700 13Q700 0 689 0H594Q581 0 577 12L513 190Q511 195 509 197T501 199H224Q215 199 212 191L147
10Q144 0 130 0H53Q41 0 41 12ZM470 293Q477 293 478 296T478 307L370 607Q367 614 363 614Q359 614 356 606L245 306L244 300Q244 293 253 293H470ZM336 854Q336 845 332 841T317 837H252Q243 837 240 840T236 852V940Q236 954 248 954H324Q336 954 336 941V854ZM500
854Q500 845 496 841T481 837H416Q407 837 404 840T400 852V940Q400 954 412 954H488Q500 954 500 941V854Z" />
<glyph unicode="&#xc5;" glyph-name="Aring" horiz-adv-x="741" d="M41 0T41 12L43 21L298 726Q301 735 306 738T320 742H421Q440 742 446 725L699 20Q700 18 700 13Q700 0 689 0H594Q581 0 577 12L513 190Q511 195 509 197T501 199H224Q215 199 212 191L147 10Q144
0 130 0H53Q41 0 41 12ZM470 293Q477 293 478 296T478 307L370 607Q367 614 363 614Q359 614 356 606L245 306L244 300Q244 293 253 293H470ZM475 811T444 781T368 750Q323 750 292 781T261 859Q261 902 292 932T368 962Q413 962 444 932T475 857Q475 811 444 781ZM421
880T406 895T367 910Q345 910 329 895T312 856Q312 834 328 818T367 801Q390 801 405 817T421 856Q421 880 406 895Z" />
<glyph unicode="&#xc6;" glyph-name="AE" horiz-adv-x="1031" d="M981 91T984 89T987 79V13Q987 0 973 0H517Q508 0 505 3T501 16V191Q501 199 493 199H261Q251 199 246 191L146 10Q141 0 129 0H51Q47 0 44 2T41 9Q41 16 45 21L433 726Q438 735 443 738T457 742H963Q975
742 975 729L974 666Q974 651 959 651H636Q628 651 625 648T622 638V432Q622 419 634 419H867Q879 419 879 407V340Q879 329 867 329H634Q627 329 625 327T622 318V102Q622 95 624 93T632 91H973Q981 91 984 89ZM501 293T501 306V619Q500 634 492 634Q484 634 476
619L300 306Q296 298 296 297Q296 293 304 293H488Q501 293 501 306Z" />
<glyph unicode="&#xc7;" glyph-name="Ccedilla" horiz-adv-x="712" d="M669 207T667 192Q654 147 620 103T531 27T405 -9L389 -50Q386 -56 393 -56Q439 -58 460 -80T482 -132Q482 -170 450 -191T368 -213Q312 -213 273 -190Q267 -187 268 -180L281 -151Q282 -149
284 -149T290 -149Q321 -169 355 -169Q410 -169 410 -132Q410 -111 390 -100T327 -88Q317 -88 321 -81L351 -9Q260 -2 194 47T93 179T58 373Q58 490 96 575T207 706T379 752Q448 752 509 724T610 647T659 542Q660 538 660 532Q660 527 658 526T650 523L557 517H554Q548
517 545 528Q531 590 489 627T383 664Q286 664 236 592T185 372Q185 226 235 154T387 82Q455 82 500 115T574 221Q575 228 589 226L660 209Q669 207 667 192Z" />
<glyph unicode="&#xc8;" glyph-name="Egrave" horiz-adv-x="636" d="M88 735T91 738T102 742H568Q580 742 580 729L579 666Q579 651 564 651H224Q209 651 209 638V432Q209 419 222 419H466Q479 419 479 407V340Q479 329 466 329H221Q209 329 209 318V102Q209 96
211 94T219 91H578Q586 91 589 89T592 79V13Q592 0 578 0H105Q95 0 92 3T88 16V727Q88 735 91 738ZM215 961T219 963T228 963L460 866Q465 864 466 860T465 850L456 824Q454 817 450 815T438 815L208 884Q199 887 197 891T196 904L214 956Q215 961 219 963Z" />
<glyph unicode="&#xc9;" glyph-name="Eacute" horiz-adv-x="636" d="M88 735T91 738T102 742H568Q580 742 580 729L579 666Q579 651 564 651H224Q209 651 209 638V432Q209 419 222 419H466Q479 419 479 407V340Q479 329 466 329H221Q209 329 209 318V102Q209 96
211 94T219 91H578Q586 91 589 89T592 79V13Q592 0 578 0H105Q95 0 92 3T88 16V727Q88 735 91 738ZM475 904Q477 898 477 897Q477 889 463 884L234 815Q231 814 227 814Q219 814 216 824L206 850Q205 852 205 856Q205 865 211 866L444 963L448 964Q455 964 458
956L475 904Z" />
<glyph unicode="&#xca;" glyph-name="Ecircumflex" horiz-adv-x="636" d="M88 735T91 738T102 742H568Q580 742 580 729L579 666Q579 651 564 651H224Q209 651 209 638V432Q209 419 222 419H466Q479 419 479 407V340Q479 329 466 329H221Q209 329 209 318V102Q209
96 211 94T219 91H578Q586 91 589 89T592 79V13Q592 0 578 0H105Q95 0 92 3T88 16V727Q88 735 91 738ZM352 894Q343 903 340 903Q336 903 327 894L272 843Q266 838 263 837T252 836H190Q182 836 182 841Q182 844 187 849L292 947Q298 953 303 956T319 959H368Q375
959 380 956T389 948L493 849Q499 843 499 840Q499 836 491 836H424Q411 836 404 843L352 894Z" />
<glyph unicode="&#xcb;" glyph-name="Edieresis" horiz-adv-x="636" d="M88 735T91 738T102 742H568Q580 742 580 729L579 666Q579 651 564 651H224Q209 651 209 638V432Q209 419 222 419H466Q479 419 479 407V340Q479 329 466 329H221Q209 329 209 318V102Q209
96 211 94T219 91H578Q586 91 589 89T592 79V13Q592 0 578 0H105Q95 0 92 3T88 16V727Q88 735 91 738ZM308 854Q308 845 304 841T289 837H224Q215 837 212 840T208 852V940Q208 954 220 954H296Q308 954 308 941V854ZM472 854Q472 845 468 841T453 837H388Q379
837 376 840T372 852V940Q372 954 384 954H460Q472 954 472 941V854Z" />
<glyph unicode="&#xcc;" glyph-name="Igrave" horiz-adv-x="298" d="M196 742Q209 742 209 727V19Q209 8 205 4T188 0H106Q96 0 92 3T88 16V727Q88 742 102 742H196ZM25 961T29 963T38 963L270 866Q275 864 276 860T275 850L266 824Q264 817 260 815T248 815L18
884Q9 887 7 891T6 904L24 956Q25 961 29 963Z" />
<glyph unicode="&#xcd;" glyph-name="Iacute" horiz-adv-x="298" d="M196 742Q209 742 209 727V19Q209 8 205 4T188 0H106Q96 0 92 3T88 16V727Q88 742 102 742H196ZM285 904Q287 898 287 897Q287 889 273 884L44 815Q41 814 37 814Q29 814 26 824L16 850Q15 852
15 856Q15 865 21 866L254 963L258 964Q265 964 268 956L285 904Z" />
<glyph unicode="&#xce;" glyph-name="Icircumflex" horiz-adv-x="298" d="M196 742Q209 742 209 727V19Q209 8 205 4T188 0H106Q96 0 92 3T88 16V727Q88 742 102 742H196ZM162 894Q153 903 150 903Q146 903 137 894L82 843Q76 838 73 837T62 836H0Q-8 836 -8 841Q-8
844 -3 849L102 947Q108 953 113 956T129 959H178Q185 959 190 956T199 948L303 849Q309 843 309 840Q309 836 301 836H234Q221 836 214 843L162 894Z" />
<glyph unicode="&#xcf;" glyph-name="Idieresis" horiz-adv-x="298" d="M196 742Q209 742 209 727V19Q209 8 205 4T188 0H106Q96 0 92 3T88 16V727Q88 742 102 742H196ZM118 854Q118 845 114 841T99 837H34Q25 837 22 840T18 852V940Q18 954 30 954H106Q118 954
118 941V854ZM282 854Q282 845 278 841T263 837H198Q189 837 186 840T182 852V940Q182 954 194 954H270Q282 954 282 941V854Z" />
<glyph unicode="&#xd0;" glyph-name="Eth" horiz-adv-x="739" d="M492 737T586 645T681 375Q681 191 581 96T282 0H114Q96 0 96 18V328H47Q38 328 34 332T30 344V396Q30 411 42 411H96V727Q96 735 100 738T113 742Q233 742 291 741Q492 737 586 645ZM365 88T429
116T524 207T555 374Q555 476 527 535T440 621T287 652L225 653Q217 653 217 639V411H368Q379 411 379 398V346Q379 336 374 332T358 328H217V100Q217 93 219 91T229 88H262Q365 88 429 116Z" />
<glyph unicode="&#xd1;" glyph-name="Ntilde" horiz-adv-x="757" d="M658 742Q669 742 669 729V13Q669 7 665 4T654 0H589Q581 0 577 1T567 10L202 534Q198 541 195 540T191 533V14Q191 0 175 0H104Q88 0 88 14V727Q88 735 91 738T103 742H181Q190 742 194 740T203
730L553 223Q559 216 562 216Q568 216 568 225V728Q568 742 582 742H658ZM503 859T458 859Q439 859 424 862T386 873Q371 878 355 881T324 885Q305 885 292 880T262 863Q258 860 254 860Q249 860 246 869L235 901Q234 904 234 908Q234 913 239 918Q258 934 276
942T320 950Q338 950 357 946T394 935Q400 933 420 928T458 922Q489 922 519 943Q523 946 528 946Q534 946 537 937L547 900Q548 898 548 894Q548 888 539 882Q503 859 458 859Z" />
<glyph unicode="&#xd2;" glyph-name="Ograve" horiz-adv-x="767" d="M283 -10T210 34T98 164T59 368Q59 488 98 574T211 706T385 752Q484 752 556 707T668 575T708 369Q708 250 669 165T557 35T384 -10Q283 -10 210 34ZM485 79T533 149T582 368Q582 519 533 591T385
664Q285 664 235 592T185 368Q185 220 234 150T385 79Q485 79 533 149ZM259 961T263 963T272 963L504 866Q509 864 510 860T509 850L500 824Q498 817 494 815T482 815L252 884Q243 887 241 891T240 904L258 956Q259 961 263 963Z" />
<glyph unicode="&#xd3;" glyph-name="Oacute" horiz-adv-x="767" d="M283 -10T210 34T98 164T59 368Q59 488 98 574T211 706T385 752Q484 752 556 707T668 575T708 369Q708 250 669 165T557 35T384 -10Q283 -10 210 34ZM485 79T533 149T582 368Q582 519 533 591T385
664Q285 664 235 592T185 368Q185 220 234 150T385 79Q485 79 533 149ZM519 904Q521 898 521 897Q521 889 507 884L278 815Q275 814 271 814Q263 814 260 824L250 850Q249 852 249 856Q249 865 255 866L488 963L492 964Q499 964 502 956L519 904Z" />
<glyph unicode="&#xd4;" glyph-name="Ocircumflex" horiz-adv-x="767" d="M283 -10T210 34T98 164T59 368Q59 488 98 574T211 706T385 752Q484 752 556 707T668 575T708 369Q708 250 669 165T557 35T384 -10Q283 -10 210 34ZM485 79T533 149T582 368Q582 519 533
591T385 664Q285 664 235 592T185 368Q185 220 234 150T385 79Q485 79 533 149ZM396 894Q387 903 384 903Q380 903 371 894L316 843Q310 838 307 837T296 836H234Q226 836 226 841Q226 844 231 849L336 947Q342 953 347 956T363 959H412Q419 959 424 956T433 948L537
849Q543 843 543 840Q543 836 535 836H468Q455 836 448 843L396 894Z" />
<glyph unicode="&#xd5;" glyph-name="Otilde" horiz-adv-x="767" d="M283 -10T210 34T98 164T59 368Q59 488 98 574T211 706T385 752Q484 752 556 707T668 575T708 369Q708 250 669 165T557 35T384 -10Q283 -10 210 34ZM485 79T533 149T582 368Q582 519 533 591T385
664Q285 664 235 592T185 368Q185 220 234 150T385 79Q485 79 533 149ZM499 859T454 859Q435 859 420 862T382 873Q367 878 351 881T320 885Q301 885 288 880T258 863Q254 860 250 860Q245 860 242 869L231 901Q230 904 230 908Q230 913 235 918Q254 934 272 942T316
950Q334 950 353 946T390 935Q396 933 416 928T454 922Q485 922 515 943Q519 946 524 946Q530 946 533 937L543 900Q544 898 544 894Q544 888 535 882Q499 859 454 859Z" />
<glyph unicode="&#xd6;" glyph-name="Odieresis" horiz-adv-x="767" d="M283 -10T210 34T98 164T59 368Q59 488 98 574T211 706T385 752Q484 752 556 707T668 575T708 369Q708 250 669 165T557 35T384 -10Q283 -10 210 34ZM485 79T533 149T582 368Q582 519 533
591T385 664Q285 664 235 592T185 368Q185 220 234 150T385 79Q485 79 533 149ZM352 854Q352 845 348 841T333 837H268Q259 837 256 840T252 852V940Q252 954 264 954H340Q352 954 352 941V854ZM516 854Q516 845 512 841T497 837H432Q423 837 420 840T416 852V940Q416
954 428 954H504Q516 954 516 941V854Z" />
<glyph unicode="&#xd7;" glyph-name="multiply" horiz-adv-x="551" d="M485 221Q489 218 489 213Q489 209 485 205L448 167Q443 162 437 162Q429 162 422 169L276 316L124 164Q120 160 116 160Q114 160 108 164L71 201Q65 207 65 212Q65 218 73 226L219 372L69
522Q63 528 63 533Q63 537 69 543L106 581Q115 590 123 583L276 430L425 580Q433 586 437 586Q443 586 447 580L484 543Q493 534 486 526L333 373L485 221Z" />
<glyph unicode="&#xd8;" glyph-name="Oslash" horiz-adv-x="740" d="M726 706T726 701Q726 696 722 692L641 604Q695 510 695 369Q695 250 656 165T544 35T371 -10Q233 -10 148 73L82 1Q75 -7 68 -7Q60 -7 53 0L27 26Q18 35 18 40Q18 45 23 50L100 134Q45 226
45 368Q45 488 84 574T197 706T371 752Q509 752 594 665L665 742Q671 749 677 749Q682 749 685 746L722 710Q726 706 726 701ZM173 284T195 230L519 590Q471 663 371 663Q271 663 222 591T173 368Q173 284 195 230ZM567 453T545 507L222 149Q270 80 372 80Q472
80 519 149T567 368Q567 453 545 507Z" />
<glyph unicode="&#xd9;" glyph-name="Ugrave" horiz-adv-x="713" d="M633 117T563 54T356 -10Q211 -10 145 59T79 273V726Q79 742 92 742H187Q200 742 200 727V252Q200 80 365 80Q533 80 533 255V727Q533 742 545 742H621Q633 742 633 728V256Q633 117 563 54ZM240
961T244 963T253 963L485 866Q490 864 491 860T490 850L481 824Q479 817 475 815T463 815L233 884Q224 887 222 891T221 904L239 956Q240 961 244 963Z" />
<glyph unicode="&#xda;" glyph-name="Uacute" horiz-adv-x="713" d="M633 117T563 54T356 -10Q211 -10 145 59T79 273V726Q79 742 92 742H187Q200 742 200 727V252Q200 80 365 80Q533 80 533 255V727Q533 742 545 742H621Q633 742 633 728V256Q633 117 563 54ZM500
904Q502 898 502 897Q502 889 488 884L259 815Q256 814 252 814Q244 814 241 824L231 850Q230 852 230 856Q230 865 236 866L469 963L473 964Q480 964 483 956L500 904Z" />
<glyph unicode="&#xdb;" glyph-name="Ucircumflex" horiz-adv-x="713" d="M633 117T563 54T356 -10Q211 -10 145 59T79 273V726Q79 742 92 742H187Q200 742 200 727V252Q200 80 365 80Q533 80 533 255V727Q533 742 545 742H621Q633 742 633 728V256Q633 117 563
54ZM377 894Q368 903 365 903Q361 903 352 894L297 843Q291 838 288 837T277 836H215Q207 836 207 841Q207 844 212 849L317 947Q323 953 328 956T344 959H393Q400 959 405 956T414 948L518 849Q524 843 524 840Q524 836 516 836H449Q436 836 429 843L377 894Z"
/>
<glyph unicode="&#xdc;" glyph-name="Udieresis" horiz-adv-x="713" d="M633 117T563 54T356 -10Q211 -10 145 59T79 273V726Q79 742 92 742H187Q200 742 200 727V252Q200 80 365 80Q533 80 533 255V727Q533 742 545 742H621Q633 742 633 728V256Q633 117 563
54ZM333 854Q333 845 329 841T314 837H249Q240 837 237 840T233 852V940Q233 954 245 954H321Q333 954 333 941V854ZM497 854Q497 845 493 841T478 837H413Q404 837 401 840T397 852V940Q397 954 409 954H485Q497 954 497 941V854Z" />
<glyph unicode="&#xdd;" glyph-name="Yacute" horiz-adv-x="694" d="M652 742T655 738T654 726L417 332Q413 325 412 318T410 293V20Q410 9 405 5T388 0H307Q290 0 290 17V292Q290 302 288 307T281 322L41 723Q38 728 38 732Q38 742 53 742H149Q159 742 163 739T173
728L347 427Q353 416 358 416Q364 416 368 425L541 728Q545 737 549 739T564 742H644Q652 742 655 738ZM485 904Q487 898 487 897Q487 889 473 884L244 815Q241 814 237 814Q229 814 226 824L216 850Q215 852 215 856Q215 865 221 866L454 963L458 964Q465 964
468 956L485 904Z" />
<glyph unicode="&#xde;" glyph-name="Thorn" horiz-adv-x="703" d="M654 276T582 221T388 166H219Q209 166 209 156V17Q209 0 191 0H104Q88 0 88 15V727Q88 742 102 742H196Q209 742 209 727V599Q209 591 217 591H374Q499 591 576 538T654 383Q654 276 582 221ZM530
501T368 501H224Q216 501 213 498T209 488V270Q209 255 220 255H374Q447 255 488 287T530 384Q530 501 368 501Z" />
<glyph unicode="&#xdf;" glyph-name="germandbls" horiz-adv-x="621" d="M418 742T465 702T512 597Q512 545 482 516T386 456Q356 440 346 431T336 406Q336 391 346 384T385 367Q448 343 485 324T551 266T580 167Q580 83 523 37T375 -10Q338 -10 304 -2T246 20Q235
25 241 34L267 85Q271 93 282 88Q302 76 322 70T369 63Q421 63 452 87T483 156Q483 187 468 207T428 239T362 266Q311 285 282 310T253 385Q253 422 272 447T334 498Q341 503 365 518T401 552T413 594Q413 628 388 648T318 668Q260 668 227 634T193 535V15Q194
13 194 9Q194 0 183 0H101Q96 0 93 3T89 13V430Q89 440 81 440H34Q21 440 21 451V503Q21 516 35 516H79Q89 516 89 528Q91 624 151 683T325 742Q418 742 465 702Z" />
<glyph unicode="&#xe0;" glyph-name="agrave" horiz-adv-x="552" d="M300 -10T202 -10Q125 -10 81 29T36 135Q36 216 106 264T307 318L372 323Q388 325 388 338V363Q388 412 358 440T276 469Q194 469 145 395Q142 389 139 388T128 388L60 408Q54 410 54 416Q54
420 57 427Q85 481 142 510T281 540Q386 540 438 495T490 370V17Q490 7 487 4T475 0H408Q394 0 392 20L390 58Q388 66 384 66Q381 66 373 60Q300 -10 202 -10ZM388 265T374 264L320 260Q237 255 189 227T140 148Q140 109 168 87T243 64Q297 64 345 101Q388 136
388 171V249Q388 265 374 264ZM153 749T157 751T166 751L398 654Q403 652 404 648T403 638L394 612Q392 605 388 603T376 603L146 672Q137 675 135 679T134 692L152 744Q153 749 157 751Z" />
<glyph unicode="&#xe1;" glyph-name="aacute" horiz-adv-x="552" d="M300 -10T202 -10Q125 -10 81 29T36 135Q36 216 106 264T307 318L372 323Q388 325 388 338V363Q388 412 358 440T276 469Q194 469 145 395Q142 389 139 388T128 388L60 408Q54 410 54 416Q54
420 57 427Q85 481 142 510T281 540Q386 540 438 495T490 370V17Q490 7 487 4T475 0H408Q394 0 392 20L390 58Q388 66 384 66Q381 66 373 60Q300 -10 202 -10ZM388 265T374 264L320 260Q237 255 189 227T140 148Q140 109 168 87T243 64Q297 64 345 101Q388 136
388 171V249Q388 265 374 264ZM413 692Q415 686 415 685Q415 677 401 672L172 603Q169 602 165 602Q157 602 154 612L144 638Q143 640 143 644Q143 653 149 654L382 751L386 752Q393 752 396 744L413 692Z" />
<glyph unicode="&#xe2;" glyph-name="acircumflex" horiz-adv-x="552" d="M300 -10T202 -10Q125 -10 81 29T36 135Q36 216 106 264T307 318L372 323Q388 325 388 338V363Q388 412 358 440T276 469Q194 469 145 395Q142 389 139 388T128 388L60 408Q54 410 54 416Q54
420 57 427Q85 481 142 510T281 540Q386 540 438 495T490 370V17Q490 7 487 4T475 0H408Q394 0 392 20L390 58Q388 66 384 66Q381 66 373 60Q300 -10 202 -10ZM388 265T374 264L320 260Q237 255 189 227T140 148Q140 109 168 87T243 64Q297 64 345 101Q388 136
388 171V249Q388 265 374 264ZM290 682Q281 691 278 691Q274 691 265 682L210 631Q204 626 201 625T190 624H128Q120 624 120 629Q120 632 125 637L230 735Q236 741 241 744T257 747H306Q313 747 318 744T327 736L431 637Q437 631 437 628Q437 624 429 624H362Q349
624 342 631L290 682Z" />
<glyph unicode="&#xe3;" glyph-name="atilde" horiz-adv-x="552" d="M300 -10T202 -10Q125 -10 81 29T36 135Q36 216 106 264T307 318L372 323Q388 325 388 338V363Q388 412 358 440T276 469Q194 469 145 395Q142 389 139 388T128 388L60 408Q54 410 54 416Q54
420 57 427Q85 481 142 510T281 540Q386 540 438 495T490 370V17Q490 7 487 4T475 0H408Q394 0 392 20L390 58Q388 66 384 66Q381 66 373 60Q300 -10 202 -10ZM388 265T374 264L320 260Q237 255 189 227T140 148Q140 109 168 87T243 64Q297 64 345 101Q388 136
388 171V249Q388 265 374 264ZM393 647T348 647Q329 647 314 650T276 661Q261 666 245 669T214 673Q195 673 182 668T152 651Q148 648 144 648Q139 648 136 657L125 689Q124 692 124 696Q124 701 129 706Q148 722 166 730T210 738Q228 738 247 734T284 723Q290
721 310 716T348 710Q379 710 409 731Q413 734 418 734Q424 734 427 725L437 688Q438 686 438 682Q438 676 429 670Q393 647 348 647Z" />
<glyph unicode="&#xe4;" glyph-name="adieresis" horiz-adv-x="552" d="M300 -10T202 -10Q125 -10 81 29T36 135Q36 216 106 264T307 318L372 323Q388 325 388 338V363Q388 412 358 440T276 469Q194 469 145 395Q142 389 139 388T128 388L60 408Q54 410 54 416Q54
420 57 427Q85 481 142 510T281 540Q386 540 438 495T490 370V17Q490 7 487 4T475 0H408Q394 0 392 20L390 58Q388 66 384 66Q381 66 373 60Q300 -10 202 -10ZM388 265T374 264L320 260Q237 255 189 227T140 148Q140 109 168 87T243 64Q297 64 345 101Q388 136
388 171V249Q388 265 374 264ZM246 642Q246 633 242 629T227 625H162Q153 625 150 628T146 640V728Q146 742 158 742H234Q246 742 246 729V642ZM410 642Q410 633 406 629T391 625H326Q317 625 314 628T310 640V728Q310 742 322 742H398Q410 742 410 729V642Z" />
<glyph unicode="&#xe5;" glyph-name="aring" horiz-adv-x="552" d="M300 -10T202 -10Q125 -10 81 29T36 135Q36 216 106 264T307 318L372 323Q388 325 388 338V363Q388 412 358 440T276 469Q194 469 145 395Q142 389 139 388T128 388L60 408Q54 410 54 416Q54
420 57 427Q85 481 142 510T281 540Q386 540 438 495T490 370V17Q490 7 487 4T475 0H408Q394 0 392 20L390 58Q388 66 384 66Q381 66 373 60Q300 -10 202 -10ZM388 265T374 264L320 260Q237 255 189 227T140 148Q140 109 168 87T243 64Q297 64 345 101Q388 136
388 171V249Q388 265 374 264ZM386 651T355 621T279 590Q234 590 203 621T172 699Q172 742 203 772T279 802Q324 802 355 772T386 697Q386 651 355 621ZM332 720T317 735T278 750Q256 750 240 735T223 696Q223 674 239 658T278 641Q301 641 316 657T332 696Q332
720 317 735Z" />
<glyph unicode="&#xe6;" glyph-name="ae" horiz-adv-x="924" d="M500 243T497 239T493 221Q493 181 514 146T572 89T653 67Q704 67 736 87T801 145Q805 149 807 149T816 147L867 123Q872 120 872 115Q872 112 869 107Q794 -10 640 -10Q517 -10 434 93Q430 97 427
93Q384 45 333 18T205 -10Q125 -10 81 30T36 139Q36 217 101 263T295 317L370 323Q388 325 388 338V363Q388 413 359 441T273 469Q194 469 145 395Q141 388 138 387T127 388L60 408Q55 410 55 418Q55 421 57 427Q89 483 143 511T280 540Q351 540 395 519T460 454Q491
496 537 518T640 540Q713 540 769 508T856 413T887 266Q887 254 884 249T869 244L511 243Q500 243 497 239ZM579 469T537 426T495 308L765 307Q776 307 779 310T782 323Q782 361 765 394T715 448T642 469Q579 469 537 426ZM388 254T385 257T372 260L310 256Q231
250 186 222T141 145Q141 107 166 85T236 62Q277 62 311 76T367 115T388 170V245Q388 254 385 257Z" />
<glyph unicode="&#xe7;" glyph-name="ccedilla" horiz-adv-x="545" d="M520 140T515 128Q489 74 440 36T320 -9L304 -50Q301 -56 308 -56Q354 -58 375 -80T397 -132Q397 -170 365 -191T283 -213Q227 -213 188 -190Q182 -187 183 -180L196 -151Q197 -149 199 -149T205
-149Q236 -169 270 -169Q325 -169 325 -132Q325 -111 305 -100T242 -88Q232 -88 236 -81L266 -8Q200 -1 149 34T70 129T42 263Q42 343 75 406T166 504T297 540Q375 540 429 503T510 407Q512 403 512 398Q512 392 503 390L432 378H429Q423 378 419 386Q391 427 365
446T302 466Q232 466 191 413T150 265Q150 169 192 116T306 63Q351 63 383 86T444 155Q447 159 450 160T458 159L511 143Q520 140 515 128Z" />
<glyph unicode="&#xe8;" glyph-name="egrave" d="M151 183T172 147T231 89T312 67Q358 67 394 86T460 145Q463 149 467 149Q472 149 475 147L526 123Q531 120 531 115Q531 112 528 107Q486 45 432 18T301 -10Q226 -10 167 24T75 119T42 259Q42 343 76 407T168
505T299 540Q373 540 429 508T515 413T546 266V262Q546 253 544 249T531 244H161Q151 244 151 228Q151 183 172 147ZM424 307Q434 307 437 310T441 321Q441 360 425 394T377 448T302 469Q257 469 223 447T171 388T153 308L424 307ZM173 749T177 751T186 751L418
654Q423 652 424 648T423 638L414 612Q412 605 408 603T396 603L166 672Q157 675 155 679T154 692L172 744Q173 749 177 751Z" />
<glyph unicode="&#xe9;" glyph-name="eacute" d="M151 183T172 147T231 89T312 67Q358 67 394 86T460 145Q463 149 467 149Q472 149 475 147L526 123Q531 120 531 115Q531 112 528 107Q486 45 432 18T301 -10Q226 -10 167 24T75 119T42 259Q42 343 76 407T168
505T299 540Q373 540 429 508T515 413T546 266V262Q546 253 544 249T531 244H161Q151 244 151 228Q151 183 172 147ZM424 307Q434 307 437 310T441 321Q441 360 425 394T377 448T302 469Q257 469 223 447T171 388T153 308L424 307ZM433 692Q435 686 435 685Q435
677 421 672L192 603Q189 602 185 602Q177 602 174 612L164 638Q163 640 163 644Q163 653 169 654L402 751L406 752Q413 752 416 744L433 692Z" />
<glyph unicode="&#xea;" glyph-name="ecircumflex" d="M151 183T172 147T231 89T312 67Q358 67 394 86T460 145Q463 149 467 149Q472 149 475 147L526 123Q531 120 531 115Q531 112 528 107Q486 45 432 18T301 -10Q226 -10 167 24T75 119T42 259Q42 343 76 407T168
505T299 540Q373 540 429 508T515 413T546 266V262Q546 253 544 249T531 244H161Q151 244 151 228Q151 183 172 147ZM424 307Q434 307 437 310T441 321Q441 360 425 394T377 448T302 469Q257 469 223 447T171 388T153 308L424 307ZM310 682Q301 691 298 691Q294
691 285 682L230 631Q224 626 221 625T210 624H148Q140 624 140 629Q140 632 145 637L250 735Q256 741 261 744T277 747H326Q333 747 338 744T347 736L451 637Q457 631 457 628Q457 624 449 624H382Q369 624 362 631L310 682Z" />
<glyph unicode="&#xeb;" glyph-name="edieresis" d="M151 183T172 147T231 89T312 67Q358 67 394 86T460 145Q463 149 467 149Q472 149 475 147L526 123Q531 120 531 115Q531 112 528 107Q486 45 432 18T301 -10Q226 -10 167 24T75 119T42 259Q42 343 76 407T168
505T299 540Q373 540 429 508T515 413T546 266V262Q546 253 544 249T531 244H161Q151 244 151 228Q151 183 172 147ZM424 307Q434 307 437 310T441 321Q441 360 425 394T377 448T302 469Q257 469 223 447T171 388T153 308L424 307ZM266 642Q266 633 262 629T247
625H182Q173 625 170 628T166 640V728Q166 742 178 742H254Q266 742 266 729V642ZM430 642Q430 633 426 629T411 625H346Q337 625 334 628T330 640V728Q330 742 342 742H418Q430 742 430 729V642Z" />
<glyph unicode="&#xec;" glyph-name="igrave" horiz-adv-x="247" d="M176 19Q176 8 172 4T156 0H88Q78 0 74 3T70 16V515Q70 523 73 526T84 530H164Q176 530 176 516V19ZM-1 749T3 751T12 751L244 654Q249 652 250 648T249 638L240 612Q238 605 234 603T222 603L-8
672Q-17 675 -19 679T-20 692L-2 744Q-1 749 3 751Z" />
<glyph unicode="&#xed;" glyph-name="iacute" horiz-adv-x="247" d="M176 19Q176 8 172 4T156 0H88Q78 0 74 3T70 16V515Q70 523 73 526T84 530H164Q176 530 176 516V19ZM259 692Q261 686 261 685Q261 677 247 672L18 603Q15 602 11 602Q3 602 0 612L-10 638Q-11
640 -11 644Q-11 653 -5 654L228 751L232 752Q239 752 242 744L259 692Z" />
<glyph unicode="&#xee;" glyph-name="icircumflex" horiz-adv-x="247" d="M176 19Q176 8 172 4T156 0H88Q78 0 74 3T70 16V515Q70 523 73 526T84 530H164Q176 530 176 516V19ZM136 682Q127 691 124 691Q120 691 111 682L56 631Q50 626 47 625T36 624H-26Q-34 624
-34 629Q-34 632 -29 637L76 735Q82 741 87 744T103 747H152Q159 747 164 744T173 736L277 637Q283 631 283 628Q283 624 275 624H208Q195 624 188 631L136 682Z" />
<glyph unicode="&#xef;" glyph-name="idieresis" horiz-adv-x="247" d="M176 19Q176 8 172 4T156 0H88Q78 0 74 3T70 16V515Q70 523 73 526T84 530H164Q176 530 176 516V19ZM92 642Q92 633 88 629T73 625H8Q-1 625 -4 628T-8 640V728Q-8 742 4 742H80Q92 742 92
729V642ZM256 642Q256 633 252 629T237 625H172Q163 625 160 628T156 640V728Q156 742 168 742H244Q256 742 256 729V642Z" />
<glyph unicode="&#xf0;" glyph-name="eth" horiz-adv-x="599" d="M557 184T526 122T435 25T298 -10Q223 -10 165 23T75 117T42 252Q42 329 74 390T164 485T294 520Q357 520 397 482Q357 564 269 624L131 546Q125 544 124 544Q119 544 114 552L102 570Q99 575 99
578Q99 583 104 585L224 653Q171 681 124 699Q119 701 119 704T122 711L168 747Q170 748 172 749T178 751Q183 751 187 749Q250 728 305 698L397 750Q399 751 402 751Q407 751 410 748L425 720Q430 714 423 709L351 669Q456 597 506 495T557 266Q557 184 526 122ZM368
65T408 117T449 255Q449 341 408 394T300 447Q256 447 222 423T169 355T150 255Q150 170 192 118T301 65Q368 65 408 117Z" />
<glyph unicode="&#xf1;" glyph-name="ntilde" horiz-adv-x="588" d="M70 0T70 16V515Q70 530 83 530H162Q174 530 174 517V462Q174 456 176 455T184 459Q236 501 276 520T363 540Q438 540 480 499T523 387V18Q523 0 506 0H432Q417 0 417 16V366Q417 411 394 435T323
460Q285 460 253 443T176 385V17Q176 8 172 4T157 0H86Q70 0 70 16ZM417 647T372 647Q353 647 338 650T300 661Q285 666 269 669T238 673Q219 673 206 668T176 651Q172 648 168 648Q163 648 160 657L149 689Q148 692 148 696Q148 701 153 706Q172 722 190 730T234
738Q252 738 271 734T308 723Q314 721 334 716T372 710Q403 710 433 731Q437 734 442 734Q448 734 451 725L461 688Q462 686 462 682Q462 676 453 670Q417 647 372 647Z" />
<glyph unicode="&#xf2;" glyph-name="ograve" horiz-adv-x="599" d="M223 -10T165 24T74 121T42 262Q42 343 75 406T166 505T300 540Q376 540 434 505T525 406T557 263Q557 184 525 122T434 25T299 -10Q223 -10 165 24ZM371 65T410 117T449 265Q449 360 410 413T300
467Q230 467 190 414T150 265Q150 171 190 118T301 65Q371 65 410 117ZM175 749T179 751T188 751L420 654Q425 652 426 648T425 638L416 612Q414 605 410 603T398 603L168 672Q159 675 157 679T156 692L174 744Q175 749 179 751Z" />
<glyph unicode="&#xf3;" glyph-name="oacute" horiz-adv-x="599" d="M223 -10T165 24T74 121T42 262Q42 343 75 406T166 505T300 540Q376 540 434 505T525 406T557 263Q557 184 525 122T434 25T299 -10Q223 -10 165 24ZM371 65T410 117T449 265Q449 360 410 413T300
467Q230 467 190 414T150 265Q150 171 190 118T301 65Q371 65 410 117ZM435 692Q437 686 437 685Q437 677 423 672L194 603Q191 602 187 602Q179 602 176 612L166 638Q165 640 165 644Q165 653 171 654L404 751L408 752Q415 752 418 744L435 692Z" />
<glyph unicode="&#xf4;" glyph-name="ocircumflex" horiz-adv-x="599" d="M223 -10T165 24T74 121T42 262Q42 343 75 406T166 505T300 540Q376 540 434 505T525 406T557 263Q557 184 525 122T434 25T299 -10Q223 -10 165 24ZM371 65T410 117T449 265Q449 360 410
413T300 467Q230 467 190 414T150 265Q150 171 190 118T301 65Q371 65 410 117ZM312 682Q303 691 300 691Q296 691 287 682L232 631Q226 626 223 625T212 624H150Q142 624 142 629Q142 632 147 637L252 735Q258 741 263 744T279 747H328Q335 747 340 744T349 736L453
637Q459 631 459 628Q459 624 451 624H384Q371 624 364 631L312 682Z" />
<glyph unicode="&#xf5;" glyph-name="otilde" horiz-adv-x="599" d="M223 -10T165 24T74 121T42 262Q42 343 75 406T166 505T300 540Q376 540 434 505T525 406T557 263Q557 184 525 122T434 25T299 -10Q223 -10 165 24ZM371 65T410 117T449 265Q449 360 410 413T300
467Q230 467 190 414T150 265Q150 171 190 118T301 65Q371 65 410 117ZM415 647T370 647Q351 647 336 650T298 661Q283 666 267 669T236 673Q217 673 204 668T174 651Q170 648 166 648Q161 648 158 657L147 689Q146 692 146 696Q146 701 151 706Q170 722 188 730T232
738Q250 738 269 734T306 723Q312 721 332 716T370 710Q401 710 431 731Q435 734 440 734Q446 734 449 725L459 688Q460 686 460 682Q460 676 451 670Q415 647 370 647Z" />
<glyph unicode="&#xf6;" glyph-name="odieresis" horiz-adv-x="599" d="M223 -10T165 24T74 121T42 262Q42 343 75 406T166 505T300 540Q376 540 434 505T525 406T557 263Q557 184 525 122T434 25T299 -10Q223 -10 165 24ZM371 65T410 117T449 265Q449 360 410
413T300 467Q230 467 190 414T150 265Q150 171 190 118T301 65Q371 65 410 117ZM268 642Q268 633 264 629T249 625H184Q175 625 172 628T168 640V728Q168 742 180 742H256Q268 742 268 729V642ZM432 642Q432 633 428 629T413 625H348Q339 625 336 628T332 640V728Q332
742 344 742H420Q432 742 432 729V642Z" />
<glyph unicode="&#xf7;" glyph-name="divide" horiz-adv-x="566" d="M347 514Q347 505 343 501T327 497H236Q227 497 224 500T221 512V605Q221 618 232 618H336Q342 618 344 616T347 606V514ZM509 349Q509 340 505 337T489 333L73 332Q64 332 61 335T58 347V399Q58
413 68 413H497Q509 413 509 402V349ZM347 145Q347 135 343 131T327 127H236Q227 127 224 130T221 142V235Q221 249 232 249H336Q347 249 347 237V145Z" />
<glyph unicode="&#xf8;" glyph-name="oslash" horiz-adv-x="587" d="M567 498T567 493Q567 487 562 483L509 432Q556 360 556 263Q556 184 524 122T433 25T298 -10Q244 -10 199 7T121 57L69 7Q60 0 55 0Q49 0 42 7L27 23Q20 30 20 37Q20 43 26 49L83 104Q41 171
41 262Q41 343 74 406T165 505T299 540Q402 540 471 477L518 522Q527 529 532 529Q537 529 541 524L563 502Q567 498 567 493ZM149 217T160 178L407 416Q368 467 299 467Q229 467 189 414T149 265Q149 217 160 178ZM448 321T435 360L187 121Q227 65 300 65Q370
65 409 117T448 265Q448 321 435 360Z" />
<glyph unicode="&#xf9;" glyph-name="ugrave" horiz-adv-x="583" d="M331 70T407 149V513Q407 530 426 530H498Q514 530 514 514L512 14Q512 0 500 0H422Q410 0 410 13V69Q410 81 400 72Q351 27 309 9T221 -10Q152 -10 108 32T64 145V512Q64 530 82 530H155Q170
530 170 514V167Q170 123 195 97T262 70Q331 70 407 149ZM155 749T159 751T168 751L400 654Q405 652 406 648T405 638L396 612Q394 605 390 603T378 603L148 672Q139 675 137 679T136 692L154 744Q155 749 159 751Z" />
<glyph unicode="&#xfa;" glyph-name="uacute" horiz-adv-x="583" d="M331 70T407 149V513Q407 530 426 530H498Q514 530 514 514L512 14Q512 0 500 0H422Q410 0 410 13V69Q410 81 400 72Q351 27 309 9T221 -10Q152 -10 108 32T64 145V512Q64 530 82 530H155Q170
530 170 514V167Q170 123 195 97T262 70Q331 70 407 149ZM415 692Q417 686 417 685Q417 677 403 672L174 603Q171 602 167 602Q159 602 156 612L146 638Q145 640 145 644Q145 653 151 654L384 751L388 752Q395 752 398 744L415 692Z" />
<glyph unicode="&#xfb;" glyph-name="ucircumflex" horiz-adv-x="583" d="M331 70T407 149V513Q407 530 426 530H498Q514 530 514 514L512 14Q512 0 500 0H422Q410 0 410 13V69Q410 81 400 72Q351 27 309 9T221 -10Q152 -10 108 32T64 145V512Q64 530 82 530H155Q170
530 170 514V167Q170 123 195 97T262 70Q331 70 407 149ZM292 682Q283 691 280 691Q276 691 267 682L212 631Q206 626 203 625T192 624H130Q122 624 122 629Q122 632 127 637L232 735Q238 741 243 744T259 747H308Q315 747 320 744T329 736L433 637Q439 631 439
628Q439 624 431 624H364Q351 624 344 631L292 682Z" />
<glyph unicode="&#xfc;" glyph-name="udieresis" horiz-adv-x="583" d="M331 70T407 149V513Q407 530 426 530H498Q514 530 514 514L512 14Q512 0 500 0H422Q410 0 410 13V69Q410 81 400 72Q351 27 309 9T221 -10Q152 -10 108 32T64 145V512Q64 530 82 530H155Q170
530 170 514V167Q170 123 195 97T262 70Q331 70 407 149ZM248 642Q248 633 244 629T229 625H164Q155 625 152 628T148 640V728Q148 742 160 742H236Q248 742 248 729V642ZM412 642Q412 633 408 629T393 625H328Q319 625 316 628T312 640V728Q312 742 324 742H400Q412
742 412 729V642Z" />
<glyph unicode="&#xfd;" glyph-name="yacute" horiz-adv-x="541" d="M72 -165T59 -163T45 -150V-99Q45 -85 73 -85H138Q160 -85 179 -70T210 -32T221 13Q221 26 217 35L26 511Q25 513 25 518Q25 530 39 530H121Q127 530 132 527T138 517L276 157Q279 148 283 148Q289
148 293 160L429 518Q434 530 445 530H504Q511 530 514 525T515 513L300 -32Q279 -86 253 -114T193 -154T106 -165Q72 -165 59 -163ZM418 692Q420 686 420 685Q420 677 406 672L177 603Q174 602 170 602Q162 602 159 612L149 638Q148 640 148 644Q148 653 154 654L387
751L391 752Q398 752 401 744L418 692Z" />
<glyph unicode="&#xfe;" glyph-name="thorn" horiz-adv-x="599" d="M176 742T176 726V475Q176 467 180 467Q182 467 189 472Q219 502 252 521T342 540Q404 540 452 510T529 420T557 272Q557 182 529 119T450 23T332 -10Q251 -10 193 40Q185 47 181 47Q176 47 176
34V-151Q176 -165 164 -165H83Q70 -165 70 -151V724Q70 734 74 738T89 742H159Q176 742 176 726ZM205 93T234 78T299 62Q368 62 408 115T449 272Q449 372 409 420T304 468Q268 468 239 453T193 413T176 364V123Q205 93 234 78Z" />
<glyph unicode="&#xff;" glyph-name="ydieresis" horiz-adv-x="541" d="M72 -165T59 -163T45 -150V-99Q45 -85 73 -85H138Q160 -85 179 -70T210 -32T221 13Q221 26 217 35L26 511Q25 513 25 518Q25 530 39 530H121Q127 530 132 527T138 517L276 157Q279 148 283
148Q289 148 293 160L429 518Q434 530 445 530H504Q511 530 514 525T515 513L300 -32Q279 -86 253 -114T193 -154T106 -165Q72 -165 59 -163ZM251 642Q251 633 247 629T232 625H167Q158 625 155 628T151 640V728Q151 742 163 742H239Q251 742 251 729V642ZM415
642Q415 633 411 629T396 625H331Q322 625 319 628T315 640V728Q315 742 327 742H403Q415 742 415 729V642Z" />
<glyph unicode="&#x2013;" glyph-name="endash" horiz-adv-x="566" d="M509 233Q509 216 489 216H73Q64 216 61 219T58 230V284Q58 297 68 297L497 298Q502 298 505 295T509 286V233Z" />
<glyph unicode="&#x2014;" glyph-name="emdash" horiz-adv-x="889" d="M832 233Q832 216 812 216H73Q64 216 61 219T58 230V284Q58 297 68 297L820 298Q825 298 828 295T832 286V233Z" />
<glyph unicode="&#x2018;" glyph-name="quoteleft" horiz-adv-x="228" d="M177 742T179 738T180 728L136 632Q133 625 133 620Q133 613 143 612L159 611Q167 610 170 607T174 597V502Q174 490 163 490H59Q49 490 49 501V590Q49 596 52 599L132 730Q135 736 141
739T155 742H172Q177 742 179 738Z" />
<glyph unicode="&#x2019;" glyph-name="quoteright" horiz-adv-x="228" d="M51 490T49 494T48 504L92 600Q95 608 95 612Q95 619 85 620L69 621Q61 622 58 625T54 635V730Q54 742 65 742H169Q179 742 179 731V642Q179 636 176 633L96 502Q93 496 87 493T73 490H56Q51
490 49 494Z" />
<glyph unicode="&#x201a;" glyph-name="quotesinglbase" horiz-adv-x="228" d="M51 -131T49 -127T48 -118L92 -21Q95 -14 95 -9Q95 -2 85 -1L69 0Q61 1 58 4T54 14V109Q54 121 65 121H169Q179 121 179 110V21Q179 15 176 12L96 -119Q93 -125 87 -128T73 -131H56Q51
-131 49 -127Z" />
<glyph unicode="&#x201c;" glyph-name="quotedblleft" horiz-adv-x="419" d="M48 490T48 501V590Q48 593 51 599L131 730Q138 742 155 742H171Q177 742 179 738T180 729L136 632Q133 625 133 620Q133 614 142 612L159 611Q167 610 170 607T173 597V503Q173 490
163 490H59Q48 490 48 501ZM240 490T240 501V590Q240 596 243 599L323 730Q330 742 346 742H363Q368 742 370 738T371 729L328 632Q324 622 324 620Q324 613 334 612L350 611Q358 610 361 607T365 597V503Q365 490 354 490H250Q240 490 240 501Z" />
<glyph unicode="&#x201d;" glyph-name="quotedblright" horiz-adv-x="421" d="M51 490T49 494T48 504L92 600Q95 608 95 612Q95 619 85 620L69 621Q61 622 58 625T54 635V730Q54 742 65 742H169Q179 742 179 731V642Q179 636 176 633L96 502Q93 496 87 493T73
490H56Q51 490 49 494ZM243 490T240 494T239 504L283 600Q286 608 286 612Q286 619 277 620L260 621Q252 622 249 625T246 635V730Q246 742 257 742H360Q371 742 371 731V642Q371 639 368 633L288 502Q281 490 264 490H248Q243 490 240 494Z" />
<glyph unicode="&#x201e;" glyph-name="quotedblbase" horiz-adv-x="421" d="M242 -131T240 -127T239 -118L283 -21Q286 -14 286 -9Q286 -2 276 -1L260 0Q252 1 249 4T245 14V109Q245 121 256 121H360Q370 121 370 110V21Q370 15 367 12L287 -119Q284 -125 278
-128T264 -131H247Q242 -131 240 -127ZM51 -131T49 -127T48 -118L92 -21Q95 -14 95 -9Q95 -2 85 -1L69 0Q61 1 58 4T54 14V109Q54 121 65 121H169Q179 121 179 110V21Q179 15 176 12L96 -119Q93 -125 87 -128T73 -131H56Q51 -131 49 -127Z" />
<glyph unicode="&#x2022;" glyph-name="bullet" horiz-adv-x="320" d="M115 271T84 302T53 377Q53 421 84 452T159 483Q203 483 234 452T265 377Q265 333 234 302T159 271Q115 271 84 302Z" />
<glyph unicode="&#x2039;" glyph-name="guilsinglleft" horiz-adv-x="274" d="M224 79Q225 78 225 76Q225 71 213 71H176Q168 71 165 77L46 244Q41 252 41 257Q41 261 45 269L165 446Q168 450 171 451T177 452H216Q228 452 224 441L133 266Q131 260 131 256Q131
254 133 248L224 79Z" />
<glyph unicode="&#x203a;" glyph-name="guilsinglright" horiz-adv-x="275" d="M144 251T144 257Q144 263 142 266L51 441L50 445Q50 452 59 452H98Q102 452 104 451T110 446L230 269Q234 261 234 257Q234 252 229 244L110 77Q107 71 99 71H62Q54 71 52 73T51
79L142 248Q144 251 144 257Z" />
</font>
</defs>
</svg>
